***Уважаемые пользователи и гости !!! Сайт переехал на новый домен Torrents-club.info. Просьба изменить ваши закладки! ***
 
[ Сегодня идет свободное скачивание без начисления Download ]


Статистика раздачи
Нет
 
   
 
 
 
Adriano Celentano - 20 Greatest Hits (2005)- Год: 2005
Жанр: Pop
Продолжительность: 01:19:45
Кодек: FLAC
Битрейт: Lossless
Издатель (лейбл): Score Music
Номер по каталогу: SCM 273
Наличие сканов: Да
Источник: swint68-Треклист:
1. Una Rosa Pericolosa
2. Amore No
3. Io Sono Un Uomo Libero
4. Susanna
5. I Want To Know
6. Dimenticare e Ricominciare
7. Atmosfera
8. Verita Da Marciapiede
9. Il Tempo Se Ne Va
10. Ready Teddy
11. Azzurro
12. Buonasera Signorina

Продолжение Трек листа:

13. L'ascensore (Sixteen Tons)
14. Fresco
15. Niente Di Nuovo
16. Soli
17. Ciao Ragazzi
18. Una Festa Sui Prati
19. Crazy Movie
20. Il Forestiero

Тех.данные:

Exact Audio Copy V0.99 prebeta 5 from 4. May 2009
Отчёт EAC об извлечении, выполненном 27. декабря 2011, 20:26
Adriano Celentano / 20 Greatest Hits
Дисковод: _NEC DVD_RW ND-4550A Adapter: 4 ID: 0
Режим чтения : Достоверность
Использование точного потока : Да
Отключение кэша аудио : Да
Использование указателей C2 : Нет
Коррекция смещения при чтении : 48
Способность читать области Lead-in и Lead-out : Нет
Заполнение пропущенных сэмплов тишиной : Да
Удаление блоков с тишиной в начале и конце : Нет
При вычислениях CRC использовались нулевые сэмплы : Да
Интерфейс : Встроенный Win32-интерфейс для Win NT/2000
Выходной формат : Внутренние WAV-операции
Формат сэмплов : 44.100 Гц; 16 бит; стерео
TOC извлечённого CD
Трек | Старт | Длительность | Начальный сектор | Конечный сектор
---------------------------------------------------------------------
1 | 0:00.00 | 4:35.55 | 0 | 20679
2 | 4:35.55 | 5:14.64 | 20680 | 44293
3 | 9:50.44 | 5:49.67 | 44294 | 70535
4 | 15:40.36 | 4:49.72 | 70536 | 92282
5 | 20:30.33 | 5:23.33 | 92283 | 116540
6 | 25:53.66 | 3:45.74 | 116541 | 133489
7 | 29:39.65 | 4:24.06 | 133490 | 153295
8 | 34:03.71 | 4:33.32 | 153296 | 173802
9 | 38:37.28 | 3:52.24 | 173803 | 191226
10 | 42:29.52 | 3:10.21 | 191227 | 205497
11 | 45:39.73 | 3:44.36 | 205498 | 222333
12 | 49:24.34 | 3:17.69 | 222334 | 237177
13 | 52:42.28 | 2:41.36 | 237178 | 249288
14 | 55:23.64 | 3:17.25 | 249289 | 264088
15 | 58:41.14 | 5:04.15 | 264089 | 286903
16 | 63:45.29 | 4:08.71 | 286904 | 305574
17 | 67:54.25 | 2:35.12 | 305575 | 317211
18 | 70:29.37 | 3:18.51 | 317212 | 332112
19 | 73:48.13 | 2:22.31 | 332113 | 342793
20 | 76:10.44 | 3:35.21 | 342794 | 358939
Характеристики диапазона извлечения и сообщения об ошибках
Выбранный диапазон
Имя файла C:\Temp\Adriano Celentano - 20 Greatest Hits.wav
Пиковый уровень 100.0 %
Качество диапазона 99.9 %
CRC теста 7C18CB62
CRC копии 7C18CB62
Копирование... OK
Ошибок не произошло
Конец отчёта

Отчёт auCDtect Task manager:

-----------------------
DON'T MODIFY THIS FILE
-----------------------
PERFORMER: auCDtect Task Manager, ver. 1.5.1RC6 build 1.5.1.7
Copyright (c) 2008-2010 y-soft. All rights reserved
ANALYZER: auCDtect: CD records authenticity detector, version 0.8.2
Copyright (c) 2004 Oleg Berngardt. All rights reserved.
Copyright (c) 2004 Alexander Djourik. All rights reserved.
FILE: Adriano Celentano - 20 Greatest Hits.flac
Size: 555256149 Hash: 39B3836514E065DB4F600E4DC7F33076 Accuracy: -m0
Conclusion: CDDA 99%
Signature: 7B96569D9DBCC474E150AFCA5E390AB29A09C28A

Спектрограмма:

[Цитировать]



Показать сообщения:    

Текущее время: 24-Май 00:27

Часовой пояс: UTC + 6


Вы не можете начинать темы
Вы не можете отвечать на сообщения
Вы не можете редактировать свои сообщения
Вы не можете удалять свои сообщения
Вы не можете голосовать в опросах
Вы не можете прикреплять файлы к сообщениям
Вы не можете скачивать файлы

!ВНИМАНИЕ!
Сайт не предоставляет электронные версии произведений, а занимается лишь коллекционированием и каталогизацией ссылок, присылаемых и публикуемых на форуме нашими читателями. Если вы являетесь правообладателем какого-либо представленного материала и не желаете, чтобы ссылка на него находилась в нашем каталоге, свяжитесь с нами, и мы незамедлительно удалим ее. Файлы для обмена на трекере предоставлены пользователями сайта, и администрация не несет ответственности за их содержание. Просьба не заливать файлы, защищенные авторскими правами, а также файлы нелегального содержания!