***Уважаемые пользователи и гости !!! Сайт переехал на новый домен Torrents-club.info. Просьба изменить ваши закладки! ***
 
[ Сегодня идет свободное скачивание без начисления Download ]


Статистика раздачи
Нет
 
   
 
 
 
Небоскрёб / Skyscraper (2018) BDRip 1080p | 60 fps Название: Небоскреб
Оригинальное название: Skyscraper
Год выхода: 2018
Жанр: боевик, триллер, приключения
Режиссер: Роусон Маршалл Тёрбер / Rawson Marshall Thurber
В ролях: Дуэйн Джонсон (Will Sawyer), Нив Кэмпбелл (Sarah Sawyer), Чинь Хань (Zhao Long Ji), Роланд Мюллер (Kores Botha), Ноа Тейлор (Mr. Pierce), Байрон Манн (Inspector Wu), Пабло Шрайбер (Ben), МакКенна Робертс (Georgia Sawyer), Ной Коттрелл (Henry Sawyer), Ханна Куинливан (Xia), Адриан Холмс (Ajani Okeke), Эльфина Люк (Sergeant Han)
О фильме:
Самый высокий и технологичный небоскрёб в мире становится центром огненной катастрофы. Только бывший агент ФБР, а теперь эксперт по безопасности Уилл Сойер может спасти вертикальный город под небесами. Когда нельзя доверять никому, а жизнь семьи в опасности, каждая секунда на счету.

Страна: США
Продолжительность: 01:42:24
Перевод: Профессиональный (полное дублирование) [Лицензия]
Формат: MKV
Качество: BDRip 1080p 60 fps (Источник: BDRemux 1080p)
Видео: MPEG-4 AVC, 1920x800 (2.40:1), 14.0 Mb/s, 59,940 fps, 0,152 bpp
Аудио №1: Русский / AC3 / 5.1 / 48 kHz / 640 kbps / 16 bit
Аудио №2: Украинский / AC3 / 2.0 / 48 kHz / 192 kbps / 16 bit
Аудио №3: Английский / DTS / 5.1 / 48 kHz / 1509 kbps / 24 bit
Субтитры: Русские, Английские

Media Info

General
Unique ID : 255623594970773581708036653486959140797 (0xC04F50486453892A2A599B30DCAA9FBD)
Complete name : E:Skyscraper.2018.60.fps.BDRip.1080p.and77200.mkv
Format : Matroska
Format version : Version 4 / Version 2
File size : 11.6 GiB
Duration : 1 h 42 min
Overall bit rate : 16.2 Mb/s
Movie name : Небоскрёб.2018 - and77200
Encoded date : UTC 2018-11-27 10:12:30
Writing application : mkvmerge v20.0.0 ('I Am The Sun') 64-bit
Writing library : libebml v1.3.5 + libmatroska v1.4.8
Video
ID : 1
Format : AVC
Format/Info : Advanced Video Codec
Format profile : High@L4.1
Format settings, CABAC : Yes
Format settings, ReFrames : 5 frames
Codec ID : V_MPEG4/ISO/AVC
Duration : 1 h 42 min
Bit rate : 14.0 Mb/s
Width : 1 920 pixels
Height : 800 pixels
Display aspect ratio : 2.40:1
Frame rate mode : Constant
Frame rate : 59.940 (59940/1000) FPS
Color space : YUV
Chroma subsampling : 4:2:0
Bit depth : 8 bits
Scan type : Progressive
Bits/(Pixel*Frame) : 0.152
Stream size : 9.90 GiB (86%)
Writing library : x264 core 146 r2538 121396c
Encoding settings : cabac=1 / ref=5 / deblock=1:0:0 / analyse=0x3:0x113 / me=umh / subme=10 / psy=1 / psy_rd=1.00:0.10 / mixed_ref=1 / me_range=32 / chroma_me=1 / trellis=2 / 8x8dct=1 / cqm=0 / deadzone=21,11 / fast_pskip=1 / chroma_qp_offset=-3 / threads=6 / lookahead_threads=1 / sliced_threads=0 / nr=0 / decimate=1 / interlaced=0 / bluray_compat=0 / constrained_intra=0 / bframes=5 / b_pyramid=2 / b_adapt=2 / b_bias=0 / direct=3 / weightb=1 / open_gop=0 / weightp=2 / keyint=250 / keyint_min=25 / scenecut=40 / intra_refresh=0 / rc_lookahead=60 / rc=2pass / mbtree=1 / bitrate=14000 / ratetol=1.0 / qcomp=0.60 / qpmin=0 / qpmax=69 / qpstep=4 / cplxblur=20.0 / qblur=0.5 / vbv_maxrate=14000 / vbv_bufsize=14000 / nal_hrd=none / filler=0 / ip_ratio=1.40 / aq=1:1.00
Language : English
Default : Yes
Forced : No
Audio #1
ID : 2
Format : AC-3
Format/Info : Audio Coding 3
Mode extension : CM (complete main)
Format settings, Endianness : Big
Codec ID : A_AC3
Duration : 1 h 42 min
Bit rate mode : Constant
Bit rate : 640 kb/s
Channel(s) : 6 channels
Channel positions : Front: L C R, Side: L R, LFE
Sampling rate : 48.0 kHz
Frame rate : 31.250 FPS (1536 spf)
Bit depth : 16 bits
Compression mode : Lossy
Stream size : 469 MiB (4%)
Title : Лицензия
Language : Russian
Default : Yes
Forced : No
Audio #2
ID : 3
Format : AC-3
Format/Info : Audio Coding 3
Mode extension : CM (complete main)
Format settings, Endianness : Big
Codec ID : A_AC3
Duration : 1 h 42 min
Bit rate mode : Constant
Bit rate : 192 kb/s
Channel(s) : 2 channels
Channel positions : Front: L R
Sampling rate : 48.0 kHz
Frame rate : 31.250 FPS (1536 spf)
Bit depth : 16 bits
Compression mode : Lossy
Stream size : 141 MiB (1%)
Title : Дублированный
Language : Ukrainian
Default : No
Forced : No
Audio #3
ID : 4
Format : DTS
Format/Info : Digital Theater Systems
Mode : 16
Format settings, Endianness : Big
Codec ID : A_DTS
Duration : 1 h 42 min
Bit rate mode : Constant
Bit rate : 1 509 kb/s
Channel(s) : 6 channels
Channel positions : Front: L C R, Side: L R, LFE
Sampling rate : 48.0 kHz
Frame rate : 93.750 FPS (512 spf)
Bit depth : 24 bits
Compression mode : Lossy
Stream size : 1.08 GiB (9%)
Language : English
Default : No
Forced : No
Text #1
ID : 5
Format : UTF-8
Codec ID : S_TEXT/UTF8
Codec ID/Info : UTF-8 Plain Text
Duration : 1 h 26 min
Bit rate : 2 b/s
Count of elements : 46
Stream size : 1.88 KiB (0%)
Title : Forced
Language : Russian
Default : Yes
Forced : No
Text #2
ID : 6
Format : UTF-8
Codec ID : S_TEXT/UTF8
Codec ID/Info : UTF-8 Plain Text
Duration : 1 h 33 min
Bit rate : 74 b/s
Count of elements : 956
Stream size : 51.2 KiB (0%)
Title : Full
Language : Russian
Default : No
Forced : No
Text #3
ID : 7
Format : UTF-8
Codec ID : S_TEXT/UTF8
Codec ID/Info : UTF-8 Plain Text
Duration : 1 h 31 min
Bit rate : 43 b/s
Count of elements : 988
Stream size : 29.2 KiB (0%)
Title : Full
Language : English
Default : No
Forced : No
Menu
00:00:00.000 : en:Chapter 01
00:04:24.764 : en:Chapter 02
00:10:07.356 : en:Chapter 03
00:16:09.927 : en:Chapter 04
00:21:12.604 : en:Chapter 05
00:25:34.991 : en:Chapter 06
00:30:11.726 : en:Chapter 07
00:35:23.913 : en:Chapter 08
00:40:07.113 : en:Chapter 09
00:47:18.961 : en:Chapter 10
00:52:10.252 : en:Chapter 11
00:58:16.784 : en:Chapter 12
01:02:02.969 : en:Chapter 13
01:05:29.634 : en:Chapter 14
01:09:59.403 : en:Chapter 15
01:14:31.425 : en:Chapter 16
01:17:18.258 : en:Chapter 17
01:23:33.341 : en:Chapter 18
01:27:46.219 : en:Chapter 19
01:32:54.569 : en:Chapter 20
01:42:23.887 : en:Chapter 21

Скриншоты

[Цитировать]



Показать сообщения:    

Текущее время: 04-Дек 20:54

Часовой пояс: UTC + 6


Вы не можете начинать темы
Вы не можете отвечать на сообщения
Вы не можете редактировать свои сообщения
Вы не можете удалять свои сообщения
Вы не можете голосовать в опросах
Вы не можете прикреплять файлы к сообщениям
Вы не можете скачивать файлы

!ВНИМАНИЕ!
Сайт не предоставляет электронные версии произведений, а занимается лишь коллекционированием и каталогизацией ссылок, присылаемых и публикуемых на форуме нашими читателями. Если вы являетесь правообладателем какого-либо представленного материала и не желаете, чтобы ссылка на него находилась в нашем каталоге, свяжитесь с нами, и мы незамедлительно удалим ее. Файлы для обмена на трекере предоставлены пользователями сайта, и администрация не несет ответственности за их содержание. Просьба не заливать файлы, защищенные авторскими правами, а также файлы нелегального содержания!