***Уважаемые пользователи и гости !!! Сайт переехал на новый домен Torrents-club.info. Просьба изменить ваши закладки! ***
 
[ Сегодня идет свободное скачивание без начисления Download ]


Статистика раздачи
Нет
 
   
 
 
 
Legend - S - Baptism XX- Информация
Жанр: Kawaii Metal
Продолжительность: 01:45:57
Год выпуска: 2018
Описание
Features the 2-day concert "LEGEND - S - BAPTISM XX" held by BABYMETAL at Green Arena in their hometown, Hiroshima on December 2 and 3, 2017. Includes the complete 16 songs performed at the concert.
Треклист
1. IN THE NAME OF
2. Ijime, Dame, Zettai
3. Gimme Chocolate!!
4. Doki Doki ☆ Morning
5. Akatsuki
6. GJ!
7. Syncopation
8. META! Meta Taro
9. No Rain, No Rainbow
10. Song 4
11. Megitsune
12. KARATE
13. Road of Resistance
14. Headbangeeeeerrrrr!!!!!!!
15. BABYMETAL DEATH
16. THE ONE

Файл
Качество: BDRip
Разрешение видео/развертка: 1080p
Контейнер: MKV
Видео кодек: H.264
Аудио кодек: PCM
Видео: MPEG-4 AVC / 1920*800 / 8000 kbps / 29.97 fps
Аудио: PCM /2304 kbps / 48.0 khz / 2 ch / 24 bit

MediaInfo:

Общее
Уникальный идентификатор : 203483677648078785926360502678615261352 (0x991587E25AC8A2C9BD09997965C880A8)
Полное имя : E:\BABYMETAL - Legend - S - Baptism XX.mkv
Формат : Matroska
Версия формата : Version 4 / Version 2
Размер файла : 7,63 Гбайт
Продолжительность : 1 ч. 45 м.
Общий поток : 10,3 Мбит/сек
Дата кодирования : UTC 2018-08-06 10:07:10
Программа кодирования : mkvmerge v7.1.0 ('Good Love') 64bit built on Jul 27 2014 13:06:55
Библиотека кодирования : libebml v1.3.0 + libmatroska v1.4.1
Видео
Идентификатор : 1
Формат : AVC
Формат/Информация : Advanced Video Codec
Профиль формата : High@L4.1
Настройки формата : CABAC / 5 Ref Frames
Параметр CABAC формата : Да
Параметр RefFrames формата : 5 кадров
Идентификатор кодека : V_MPEG4/ISO/AVC
Продолжительность : 1 ч. 45 м.
Битрейт : 8000 Кбит/сек
Ширина : 1920 пикселей
Высота : 800 пикселей
Соотношение сторон : 2,40:1
Режим частоты кадров : Постоянный
Частота кадров : 29,970 (30000/1001) кадров/сек
Цветовое пространство : YUV
Субдискретизация насыщенности : 4:2:0
Битовая глубина : 8 бит
Тип развёртки : Прогрессивная
Бит/(Пиксели*Кадры) : 0.174
Размер потока : 5,92 Гбайт (78%)
Библиотека кодирования : x264 core 152 r2851 ba24899
Настройки программы : cabac=1 / ref=5 / deblock=1:-2:-2 / analyse=0x3:0x133 / me=umh / subme=10 / psy=1 / psy_rd=1.00:0.15 / mixed_ref=1 / me_range=32 / chroma_me=1 / trellis=2 / 8x8dct=1 / cqm=0 / deadzone=21,11 / fast_pskip=0 / chroma_qp_offset=-3 / threads=6 / lookahead_threads=1 / sliced_threads=0 / nr=0 / decimate=1 / interlaced=0 / bluray_compat=0 / constrained_intra=0 / bframes=8 / b_pyramid=2 / b_adapt=2 / b_bias=0 / direct=3 / weightb=1 / open_gop=0 / weightp=2 / keyint=300 / keyint_min=29 / scenecut=40 / intra_refresh=0 / rc_lookahead=60 / rc=2pass / mbtree=1 / bitrate=8000 / ratetol=1.0 / qcomp=0.60 / qpmin=0 / qpmax=69 / qpstep=4 / cplxblur=20.0 / qblur=0.5 / vbv_maxrate=50000 / vbv_bufsize=50000 / nal_hrd=none / filler=0 / ip_ratio=1.40 / aq=1:1.00
Default : Да
Forced : Нет
Аудио
Идентификатор : 2
Формат : PCM
Настройки формата : Little / Signed
Идентификатор кодека : A_PCM/INT/LIT
Продолжительность : 1 ч. 45 м.
Вид битрейта : Постоянный
Битрейт : 2304 Кбит/сек
Каналы : 2 канала
Частота : 48,0 КГц
Частота кадров : 32,000 кадра/сек (1500 SPF)
Битовая глубина : 24 бит
Размер потока : 1,71 Гбайт (22%)
Default : Да
Forced : Нет
Меню #1
00:00:00.000 : en:Chapter 01
00:00:18.018 : en:Chapter 02
00:03:21.668 : en:Chapter 03
00:08:31.844 : en:IN THE NAME OF
00:12:09.929 : en:Ijime, Dame, Zettai
00:17:43.395 : en:Gimme Chocolate!!
00:21:39.164 : en:Doki Doki в
00:25:36.201 : en:Akatsuki
00:32:30.581 : en:GJ!
00:35:49.480 : en:Syncopation
00:40:33.130 : en:Meta Taro
00:45:56.687 : en:Chapter 12
00:47:56.506 : en:No Rain, No Rainbow
00:52:51.902 : en:Song 4
00:57:21.371 : en:Megitsune
01:03:45.188 : en:KARATE
01:08:15.691 : en:Road of Resistance
01:15:24.353 : en:Headbangeeeeerrrrr!!!!!!!
01:20:31.026 : en:Chapter 19
01:22:50.265 : en:BABYMETAL DEATH
01:28:32.573 : en:Chapter 21
01:33:58.265 : en:THE ONE
Меню #2
00:00:00.000 : en:Chapter 01
00:00:18.018 : en:Chapter 02
00:03:21.668 : en:Chapter 03
00:08:31.844 : en:IN THE NAME OF
00:12:09.929 : en:Ijime, Dame, Zettai
00:17:43.395 : en:Gimme Chocolate!!
00:21:39.164 : en:Doki Doki в
00:25:36.201 : en:Akatsuki
00:32:30.581 : en:GJ!
00:35:49.480 : en:Syncopation
00:40:33.130 : en:Meta Taro
00:45:56.687 : en:Chapter 12
00:47:56.506 : en:No Rain, No Rainbow
00:52:51.902 : en:Song 4
00:57:21.371 : en:Megitsune
01:03:45.188 : en:KARATE
01:08:15.691 : en:Road of Resistance
01:15:24.353 : en:Headbangeeeeerrrrr!!!!!!!
01:20:31.026 : en:Chapter 19
01:22:50.265 : en:BABYMETAL DEATH
01:28:32.573 : en:Chapter 21
01:33:58.265 : en:THE ONE

[Цитировать]



Показать сообщения:    

Текущее время: 07-Дек 06:20

Часовой пояс: UTC + 6


Вы не можете начинать темы
Вы не можете отвечать на сообщения
Вы не можете редактировать свои сообщения
Вы не можете удалять свои сообщения
Вы не можете голосовать в опросах
Вы не можете прикреплять файлы к сообщениям
Вы не можете скачивать файлы

!ВНИМАНИЕ!
Сайт не предоставляет электронные версии произведений, а занимается лишь коллекционированием и каталогизацией ссылок, присылаемых и публикуемых на форуме нашими читателями. Если вы являетесь правообладателем какого-либо представленного материала и не желаете, чтобы ссылка на него находилась в нашем каталоге, свяжитесь с нами, и мы незамедлительно удалим ее. Файлы для обмена на трекере предоставлены пользователями сайта, и администрация не несет ответственности за их содержание. Просьба не заливать файлы, защищенные авторскими правами, а также файлы нелегального содержания!