***Уважаемые пользователи и гости !!! Сайт переехал на новый домен Torrents-club.info. Просьба изменить ваши закладки! ***
 
[ Сегодня идет свободное скачивание без начисления Download ]


Статистика раздачи
Нет
 
   
 
 
 
Синичка
(серии 1-4 из 4)
- Информация
Производство: Россия | Марс Медиа Энтертейнмент
Жанр: детектив, криминал
Режиссер: Илья Казанков
Актеры: Глафира Тарханова, Сергей Губанов, Евгения Ярушникова, Аристарх Ливанов, Алексей Демидов, Сергей Степин, Александр Никольский, Михаил Коновалов, Алеся Гузько, Вера Тарасова и др.
Описание:
Талантливая сотрудница кафедры психологии Ульяна Синицына не допускается к защите докторской из-за «сомнительной» темы. Она пытается обосновать и продвинуть новые методы составления психологических портретов. Чтобы доказать свою теорию на практике, упрямая Ульяна устраивается консультантом в полицию. Ее напарник, следователь Игорь Левин, скептически относится к ее идеям, пока они не помогают в запутанном деле об убийстве балерины.


Возраст: 16+ (зрителям, достигшим 16 лет)
Дата российской премьеры: 24 ноября 2018
Продолжительность: ~00:45:00 серия
Файл
Качество видео: WEB-DL Сэмпл
Видео: AVC/H.264, 1280x720 (16:9), ~3200 kbps
Аудио: AC3, 2 ch, 192 kbps

Mediainfo:

General
Unique ID : 193265536149852293294598452408076112436 (0x9165969CB920223E89CCCC4444529234)
Complete name : D:\Синичка_2018_WEB-DL_720p_01.mkv
Format : Matroska
Format version : Version 4
File size : 1.00 GiB
Duration : 43 min 47 s
Overall bit rate mode : Constant
Overall bit rate : 3 271 kb/s
Movie name : Sinichka.e01.2018.WEB-DL.(720p).Getty
Encoded date : UTC 2018-11-23 18:25:09
Writing application : mkvmerge v7.8.0 ('River Man') 32bit built on Mar 27 2015 16:18:02
Writing library : libebml v1.3.1 + libmatroska v1.4.2
Video
ID : 1
Format : AVC
Format/Info : Advanced Video Codec
Format profile : High@L4.1
Format settings : CABAC / 4 Ref Frames
Format settings, CABAC : Yes
Format settings, ReFrames : 4 frames
Codec ID : V_MPEG4/ISO/AVC
Duration : 43 min 47 s
Bit rate mode : Constant
Bit rate : 3 200 kb/s
Width : 1 280 pixels
Height : 720 pixels
Display aspect ratio : 16:9
Frame rate mode : Constant
Frame rate : 25.000 FPS
Color space : YUV
Chroma subsampling : 4:2:0
Bit depth : 8 bits
Scan type : Progressive
Bits/(Pixel*Frame) : 0.139
Stream size : 964 MiB (94%)
Default : Yes
Forced : No
Audio
ID : 2
Format : AC-3
Format/Info : Audio Coding 3
Commercial name : Dolby Digital
Codec ID : A_AC3
Duration : 43 min 47 s
Bit rate mode : Constant
Bit rate : 192 kb/s
Channel(s) : 2 channels
Channel layout : L R
Sampling rate : 48.0 kHz
Frame rate : 31.250 FPS (1536 SPF)
Bit depth : 16 bits
Compression mode : Lossy
Stream size : 60.1 MiB (6%)
Service kind : Complete Main
Default : Yes
Forced : No

Скриншоты

Скриншоты:

[Цитировать]



Показать сообщения:    

Текущее время: 04-Дек 15:25

Часовой пояс: UTC + 6


Вы не можете начинать темы
Вы не можете отвечать на сообщения
Вы не можете редактировать свои сообщения
Вы не можете удалять свои сообщения
Вы не можете голосовать в опросах
Вы не можете прикреплять файлы к сообщениям
Вы не можете скачивать файлы

!ВНИМАНИЕ!
Сайт не предоставляет электронные версии произведений, а занимается лишь коллекционированием и каталогизацией ссылок, присылаемых и публикуемых на форуме нашими читателями. Если вы являетесь правообладателем какого-либо представленного материала и не желаете, чтобы ссылка на него находилась в нашем каталоге, свяжитесь с нами, и мы незамедлительно удалим ее. Файлы для обмена на трекере предоставлены пользователями сайта, и администрация не несет ответственности за их содержание. Просьба не заливать файлы, защищенные авторскими правами, а также файлы нелегального содержания!