***Уважаемые пользователи и гости !!! Сайт переехал на новый домен Torrents-club.info. Просьба изменить ваши закладки! ***
 
[ Сегодня идет свободное скачивание без начисления Download ]


Статистика раздачи
Нет
 
   
 
 
 
Аркадий Северный - Моё почтение (2002) - Год: 2002
Жанр: Шансон
Издание: Shock - Records
Источник (релизер): eloychik ®
Продолжительность: 01:13:40
Кодек: FLAC
Битрейт: Lossless
Тип рипа: image + .cue
Треклист:
01. Здравствуйте, моё почтенье
02. Голуби
03. Пивная
04. Раз и сняли
05. Поспели вишни
06. Черёмуха цвела
07. Чёрная шляпа
08. Показания невиновного
09. Сигарета
10. Чёрная роза
11. Официант

Продолжение треклиста:

12. Облака
13. Ночь
14. Я тоскую по родине
15. Студентка
16. Сотен шесть километров
17. Музыка играет

Отчёт ЕАС:

Exact Audio Copy V1.3 from 2. September 2016
Отчёт EAC об извлечении, выполненном 17. ноября 2018, 19:00
Аркадий Северный / Мое почтение
Дисковод: ASUS DRW-24F1MT Adapter: 1 ID: 0
Режим чтения : Достоверность
Использование точного потока : Да
Отключение кэша аудио : Да
Использование указателей C2 : Нет
Коррекция смещения при чтении : 6
Способность читать области Lead-in и Lead-out : Нет
Заполнение пропущенных сэмплов тишиной : Да
Удаление блоков с тишиной в начале и конце : Нет
При вычислениях CRC использовались нулевые сэмплы : Да
Интерфейс : Встроенный Win32-интерфейс для Win NT/2000
Выходной формат : Пользовательский кодировщик
Выбранный битрейт : 128 kBit/s
Качество : Высокий
Добавление ID3-тега : Нет
Утилита сжатия : C:\Program Files (x86)\Exact Audio Copy\Flac\flac.exe
Дополнительные параметры : -V -8 -T "Date=%year%" -T "Genre=%genre%" %source%
TOC извлечённого CD
Трек | Старт | Длительность | Начальный сектор | Конечный сектор
---------------------------------------------------------------------
1 | 0:00.01 | 4:18.67 | 1 | 19417
2 | 4:18.68 | 8:38.54 | 19418 | 58321
3 | 12:57.47 | 4:22.48 | 58322 | 78019
4 | 17:20.20 | 2:03.62 | 78020 | 87306
5 | 19:24.07 | 3:48.29 | 87307 | 104435
6 | 23:12.36 | 4:32.21 | 104436 | 124856
7 | 27:44.57 | 4:43.65 | 124857 | 146146
8 | 32:28.47 | 5:16.13 | 146147 | 169859
9 | 37:44.60 | 3:34.31 | 169860 | 185940
10 | 41:19.16 | 5:22.54 | 185941 | 210144
11 | 46:41.70 | 4:25.15 | 210145 | 230034
12 | 51:07.10 | 2:32.43 | 230035 | 241477
13 | 53:39.53 | 6:01.29 | 241478 | 268581
14 | 59:41.07 | 4:05.59 | 268582 | 287015
15 | 63:46.66 | 2:51.38 | 287016 | 299878
16 | 66:38.29 | 4:01.48 | 299879 | 318001
17 | 70:40.02 | 2:59.65 | 318002 | 331491
Характеристики диапазона извлечения и сообщения об ошибках
Выбранный диапазон
Имя файла E:\Раздачи\Аркадий Северный - Мое почтение.wav
Пиковый уровень 98.4 %
Скорость извлечения 2.4 X
Качество диапазона 99.9 %
CRC теста 442B47CE
CRC копии 442B47CE
Копирование... OK
Ошибок не произошло
AccurateRip: сводка
Трек 1 : извлечено точно (доверие 1) [68979FF1] (AR v2)
Трек 2 : извлечено точно (доверие 1) [44930463] (AR v2)
Трек 3 : извлечено точно (доверие 1) [26306EA1] (AR v2)
Трек 4 : извлечено точно (доверие 1) [4EE466AF] (AR v2)
Трек 5 : извлечено точно (доверие 1) [D0D2C180] (AR v2)
Трек 6 : извлечено точно (доверие 1) [93610B89] (AR v2)
Трек 7 : извлечено точно (доверие 1) [BDCE57AE] (AR v2)
Трек 8 : извлечено точно (доверие 1) [038BEEA9] (AR v2)
Трек 9 : извлечено точно (доверие 1) [6DECD7F2] (AR v2)
Трек 10 : извлечено точно (доверие 1) [D5B2CBA6] (AR v2)
Трек 11 : извлечено точно (доверие 1) [DE77BBC5] (AR v2)
Трек 12 : извлечено точно (доверие 1) [A093F19C] (AR v2)
Трек 13 : извлечено точно (доверие 1) [28370674] (AR v2)
Трек 14 : извлечено точно (доверие 1) [9F216CA7] (AR v2)
Трек 15 : извлечено точно (доверие 1) [55A49539] (AR v2)
Трек 16 отсутствует в базе данных
Трек 17 отсутствует в базе данных
15 трек(и) скопированы точно
2 трек(и) не содержатся в базе AccurateRip
Некоторые треки не прошли проверку на точность
Конец отчёта
==== Контрольная сумма отчёта 8879187FC2C317AF4403BA60788D32ABE3B160EA3D71A3F5946AD0947E538EA5 ====

Cue Sheet (.cue):

REM GENRE Chanson
REM DATE 2002
REM DISCID E7114311
REM COMMENT "ExactAudioCopy v1.3"
PERFORMER "Аркадий Северный"
TITLE "Мое почтение"
REM COMPOSER ""
FILE "Аркадий Северный - Мое почтение.flac" WAVE
TRACK 01 AUDIO
TITLE "Здравствуйте, мое почтенье"
PERFORMER "Аркадий Северный"
REM COMPOSER ""
INDEX 00 00:00:00
INDEX 01 00:00:01
TRACK 02 AUDIO
TITLE "Голуби"
PERFORMER "Аркадий Северный"
REM COMPOSER ""
INDEX 01 04:18:68
TRACK 03 AUDIO
TITLE "Пивная"
PERFORMER "Аркадий Северный"
REM COMPOSER ""
INDEX 01 12:57:47
TRACK 04 AUDIO
TITLE "Раз и сняли"
PERFORMER "Аркадий Северный"
REM COMPOSER ""
INDEX 01 17:20:20
TRACK 05 AUDIO
TITLE "Поспели вишни"
PERFORMER "Аркадий Северный"
REM COMPOSER ""
INDEX 01 19:24:07
TRACK 06 AUDIO
TITLE " Черемуха цвела"
PERFORMER "Аркадий Северный"
REM COMPOSER ""
INDEX 01 23:12:36
TRACK 07 AUDIO
TITLE "Черная шляпа"
PERFORMER "Аркадий Северный"
REM COMPOSER ""
INDEX 01 27:44:57
TRACK 08 AUDIO
TITLE "Показания невиновного"
PERFORMER "Аркадий Северный"
REM COMPOSER ""
INDEX 01 32:28:47
TRACK 09 AUDIO
TITLE "Сигарета"
PERFORMER "Аркадий Северный"
REM COMPOSER ""
INDEX 01 37:44:60
TRACK 10 AUDIO
TITLE "Черная роза"
PERFORMER "Аркадий Северный"
REM COMPOSER ""
INDEX 01 41:19:16
TRACK 11 AUDIO
TITLE "Официант"
PERFORMER "Аркадий Северный"
REM COMPOSER ""
INDEX 01 46:41:70
TRACK 12 AUDIO
TITLE "Облака"
PERFORMER "Аркадий Северный"
REM COMPOSER ""
INDEX 01 51:07:10
TRACK 13 AUDIO
TITLE "Ночь"
PERFORMER "Аркадий Северный"
REM COMPOSER ""
INDEX 01 53:39:53
TRACK 14 AUDIO
TITLE "Я тоскую по родине"
PERFORMER "Аркадий Северный"
REM COMPOSER ""
INDEX 01 59:41:07
TRACK 15 AUDIO
TITLE "Студентка"
PERFORMER "Аркадий Северный"
REM COMPOSER ""
INDEX 01 63:46:66
TRACK 16 AUDIO
TITLE "Сотен шесть километров"
PERFORMER "Аркадий Северный"
REM COMPOSER ""
INDEX 01 66:38:29
TRACK 17 AUDIO
TITLE "Музыка играет"
PERFORMER "Аркадий Северный"
REM COMPOSER ""
INDEX 01 70:40:02

Отчёт auCDtect Task manager:

-----------------------
DON'T MODIFY THIS FILE
-----------------------
PERFORMER: auCDtect Task Manager, ver. 1.6.0 RC1 build 1.6.0.1
Copyright (c) 2008-2010 y-soft. All rights reserved
ANALYZER: auCDtect: CD records authenticity detector, version 0.8.2
Copyright (c) 2004 Oleg Berngardt. All rights reserved.
Copyright (c) 2004 Alexander Djourik. All rights reserved.
FILE: Аркадий Северный - Мое почтение.flac
Size: 435355327 Hash: ED5A1BBB2E0D486FC4BCC2A16B276C83 Accuracy: -m0
Conclusion: MPEG 95%
Signature: DF2B76CEAAEC6AD9EAA053B184FBC14EAC2CA902

Спектрограмма:

[Цитировать]



Показать сообщения:    

Текущее время: 24-Май 02:34

Часовой пояс: UTC + 6


Вы не можете начинать темы
Вы не можете отвечать на сообщения
Вы не можете редактировать свои сообщения
Вы не можете удалять свои сообщения
Вы не можете голосовать в опросах
Вы не можете прикреплять файлы к сообщениям
Вы не можете скачивать файлы

!ВНИМАНИЕ!
Сайт не предоставляет электронные версии произведений, а занимается лишь коллекционированием и каталогизацией ссылок, присылаемых и публикуемых на форуме нашими читателями. Если вы являетесь правообладателем какого-либо представленного материала и не желаете, чтобы ссылка на него находилась в нашем каталоге, свяжитесь с нами, и мы незамедлительно удалим ее. Файлы для обмена на трекере предоставлены пользователями сайта, и администрация не несет ответственности за их содержание. Просьба не заливать файлы, защищенные авторскими правами, а также файлы нелегального содержания!