***Уважаемые пользователи и гости !!! Сайт переехал на новый домен Torrents-club.info. Просьба изменить ваши закладки! ***
 
[ Сегодня идет свободное скачивание без начисления Download ]


Статистика раздачи
Нет
 
   
 
 
 
Вика Цыганова - Приходите в мой дом (2003) - Год: 2003
Жанр: Шансон
Издание: CD/LAND CDLR 0350CD
Источник (релизер): eloychik ®
Продолжительность: 01:04:22
Кодек: FLAC
Битрейт: Lossless
Тип рипа: image + .cue
Треклист:
01. Мама Россия
02. Приходите в мой дом
03. Разбудите
04. Вор
05. Только для тебя
06. Я жду тебя
07. Золотые георгины
08. Рябиновый вечер
09. На заре вечерней
10. Жаль
11. Соловьи

Продолжение треклиста:

12. Молодой солдат
13. Танго
14. Гой, ты Русь
15. Офицеры
16. Приходите в мой дом (караоке)

Отчёт ЕАС:

Exact Audio Copy V1.3 from 2. September 2016
Отчёт EAC об извлечении, выполненном 7. ноября 2018, 18:37
Various Artists / Хит по блату 2
Дисковод: ASUS DRW-24F1MT Adapter: 1 ID: 0
Режим чтения : Достоверность
Использование точного потока : Да
Отключение кэша аудио : Да
Использование указателей C2 : Нет
Коррекция смещения при чтении : 6
Способность читать области Lead-in и Lead-out : Нет
Заполнение пропущенных сэмплов тишиной : Да
Удаление блоков с тишиной в начале и конце : Нет
При вычислениях CRC использовались нулевые сэмплы : Да
Интерфейс : Встроенный Win32-интерфейс для Win NT/2000
Выходной формат : Пользовательский кодировщик
Выбранный битрейт : 128 kBit/s
Качество : Высокий
Добавление ID3-тега : Нет
Утилита сжатия : C:\Program Files (x86)\Exact Audio Copy\Flac\flac.exe
Дополнительные параметры : -V -8 -T "Date=%year%" -T "Genre=%genre%" %source%
TOC извлечённого CD
Трек | Старт | Длительность | Начальный сектор | Конечный сектор
---------------------------------------------------------------------
1 | 0:00.00 | 5:51.32 | 0 | 26356
2 | 5:51.32 | 3:44.24 | 26357 | 43180
3 | 9:35.56 | 4:14.08 | 43181 | 62238
4 | 13:49.64 | 4:11.55 | 62239 | 81118
5 | 18:01.44 | 3:26.19 | 81119 | 96587
6 | 21:27.63 | 4:20.40 | 96588 | 116127
7 | 25:48.28 | 3:06.29 | 116128 | 130106
8 | 28:54.57 | 4:55.47 | 130107 | 152278
9 | 33:50.29 | 3:58.39 | 152279 | 170167
10 | 37:48.68 | 4:45.74 | 170168 | 191616
11 | 42:34.67 | 3:35.73 | 191617 | 207814
12 | 46:10.65 | 3:33.37 | 207815 | 223826
13 | 49:44.27 | 3:41.57 | 223827 | 240458
14 | 53:26.09 | 5:20.42 | 240459 | 264500
15 | 58:46.51 | 3:58.10 | 264501 | 282360
16 | 62:44.61 | 4:33.49 | 282361 | 302884
17 | 67:18.35 | 4:18.03 | 302885 | 322237
18 | 71:36.38 | 2:54.62 | 322238 | 335349
Характеристики диапазона извлечения и сообщения об ошибках
Выбранный диапазон
Имя файла E:\Various Artists - Хит по блату 2.wav
Пиковый уровень 96.6 %
Скорость извлечения 8.0 X
Качество диапазона 100.0 %
CRC теста B850D27D
CRC копии B850D27D
Копирование... OK
Ошибок не произошло
AccurateRip: сводка
Трек 1 : извлечено точно (доверие 1) [1F59759C] (AR v2)
Трек 2 : извлечено точно (доверие 1) [307516E1] (AR v2)
Трек 3 : извлечено точно (доверие 1) [62B60638] (AR v2)
Трек 4 : извлечено точно (доверие 1) [EE2E6D31] (AR v2)
Трек 5 : извлечено точно (доверие 1) [A249C8DA] (AR v2)
Трек 6 : извлечено точно (доверие 1) [41C1856D] (AR v2)
Трек 7 : извлечено точно (доверие 1) [195F6F37] (AR v2)
Трек 8 : извлечено точно (доверие 1) [7FC72939] (AR v2)
Трек 9 : извлечено точно (доверие 1) [4C12B4C0] (AR v2)
Трек 10 : извлечено точно (доверие 1) [EF76107C] (AR v2)
Трек 11 : извлечено точно (доверие 1) [BA115C57] (AR v2)
Трек 12 : извлечено точно (доверие 1) [5E1FEFFE] (AR v2)
Трек 13 : извлечено точно (доверие 1) [7DA2C437] (AR v2)
Трек 14 : извлечено точно (доверие 1) [A185774B] (AR v2)
Трек 15 : извлечено точно (доверие 1) [15E92684] (AR v2)
Трек 16 : извлечено точно (доверие 1) [E1662428] (AR v2)
Трек 17 : извлечено точно (доверие 1) [3B93E355] (AR v2)
Трек 18 : извлечено точно (доверие 1) [6716022D] (AR v2)
Все треки извлечены точно
Конец отчёта
==== Контрольная сумма отчёта 7558DA4494C64A0228E50DCCFA759DFC32F555243F234B8096443D6AE064DC5F ====

Cue Sheet (.cue):

REM GENRE Chanson
REM DATE 2000
REM DISCID 0C117712
REM COMMENT "ExactAudioCopy v1.3"
PERFORMER "Various Artists"
TITLE "Хит по блату 2"
REM COMPOSER ""
FILE "Various Artists - Хит по блату 2.flac" WAVE
TRACK 01 AUDIO
TITLE "Меха"
PERFORMER "В.Лисицын"
REM COMPOSER ""
INDEX 01 00:00:00
TRACK 02 AUDIO
TITLE "Валына"
PERFORMER "В.Аксенов"
REM COMPOSER ""
INDEX 00 05:49:32
INDEX 01 05:51:32
TRACK 03 AUDIO
TITLE "Колдунья судьба"
PERFORMER "А.Шапиро"
REM COMPOSER ""
INDEX 00 09:33:56
INDEX 01 09:35:56
TRACK 04 AUDIO
TITLE "Жиган и жучка"
PERFORMER "Беломорканал"
REM COMPOSER ""
INDEX 00 13:47:64
INDEX 01 13:49:64
TRACK 05 AUDIO
TITLE "Русский медведь"
PERFORMER "И.Московский"
REM COMPOSER ""
INDEX 00 17:59:44
INDEX 01 18:01:44
TRACK 06 AUDIO
TITLE "Выстрел"
PERFORMER "А.Климнюк"
REM COMPOSER ""
INDEX 00 21:25:63
INDEX 01 21:27:63
TRACK 07 AUDIO
TITLE "50/50"
PERFORMER "Лесоповал"
REM COMPOSER ""
INDEX 00 25:46:28
INDEX 01 25:48:28
TRACK 08 AUDIO
TITLE "Вор-воруй"
PERFORMER "В.Забелин"
REM COMPOSER ""
INDEX 00 28:52:57
INDEX 01 28:54:57
TRACK 09 AUDIO
TITLE "Облака"
PERFORMER "В.Столбов"
REM COMPOSER ""
INDEX 00 33:48:29
INDEX 01 33:50:29
TRACK 10 AUDIO
TITLE "В Бутырской тюрьме"
PERFORMER "Крестовый туз"
REM COMPOSER ""
INDEX 00 37:46:68
INDEX 01 37:48:68
TRACK 11 AUDIO
TITLE "Осень"
PERFORMER "А.Новиков"
REM COMPOSER ""
INDEX 00 42:32:67
INDEX 01 42:34:67
TRACK 12 AUDIO
TITLE "Туруханский край"
PERFORMER "С.Питерская"
REM COMPOSER ""
INDEX 00 46:08:65
INDEX 01 46:10:65
TRACK 13 AUDIO
TITLE "Таня-Джан"
PERFORMER "Г.Кричевский"
REM COMPOSER ""
INDEX 00 49:42:27
INDEX 01 49:44:27
TRACK 14 AUDIO
TITLE "Видится во снах"
PERFORMER "В.Аксенов"
REM COMPOSER ""
INDEX 00 53:24:09
INDEX 01 53:26:09
TRACK 15 AUDIO
TITLE "Мой остров"
PERFORMER "С.Медяник и Г.Журавлева"
REM COMPOSER ""
INDEX 00 58:44:51
INDEX 01 58:46:51
TRACK 16 AUDIO
TITLE "Ветки"
PERFORMER "В.Лисицын"
REM COMPOSER ""
INDEX 00 62:42:61
INDEX 01 62:44:61
TRACK 17 AUDIO
TITLE "За запретной полосой"
PERFORMER "С.Бобков"
REM COMPOSER ""
INDEX 00 67:16:35
INDEX 01 67:18:35
TRACK 18 AUDIO
TITLE "Клетка"
PERFORMER "В.Черняков"
REM COMPOSER ""
INDEX 00 71:34:38
INDEX 01 71:36:38

Отчёт auCDtect Task manager:

-----------------------
DON'T MODIFY THIS FILE
-----------------------
PERFORMER: auCDtect Task Manager, ver. 1.6.0 RC1 build 1.6.0.1
Copyright (c) 2008-2010 y-soft. All rights reserved
ANALYZER: auCDtect: CD records authenticity detector, version 0.8.2
Copyright (c) 2004 Oleg Berngardt. All rights reserved.
Copyright (c) 2004 Alexander Djourik. All rights reserved.
FILE: Various Artists - Хит по блату 2.flac
Size: 573145919 Hash: 10ECEA2D6FBAFEBEF7F7879DA18FD27F Accuracy: -m0
Conclusion: CDDA 100%
Signature: 4487033F3F5805C6951027EEB3708F0750B7E04C

[Цитировать]



Показать сообщения:    

Текущее время: 30-Ноя 09:54

Часовой пояс: UTC + 6


Вы не можете начинать темы
Вы не можете отвечать на сообщения
Вы не можете редактировать свои сообщения
Вы не можете удалять свои сообщения
Вы не можете голосовать в опросах
Вы не можете прикреплять файлы к сообщениям
Вы не можете скачивать файлы

!ВНИМАНИЕ!
Сайт не предоставляет электронные версии произведений, а занимается лишь коллекционированием и каталогизацией ссылок, присылаемых и публикуемых на форуме нашими читателями. Если вы являетесь правообладателем какого-либо представленного материала и не желаете, чтобы ссылка на него находилась в нашем каталоге, свяжитесь с нами, и мы незамедлительно удалим ее. Файлы для обмена на трекере предоставлены пользователями сайта, и администрация не несет ответственности за их содержание. Просьба не заливать файлы, защищенные авторскими правами, а также файлы нелегального содержания!