***Уважаемые пользователи и гости !!! Сайт переехал на новый домен Torrents-club.info. Просьба изменить ваши закладки! ***
 
[ Сегодня идет свободное скачивание без начисления Download ]


Статистика раздачи
Нет
 
   
 
 
 
Ира Ежова - Малолетка (1997) - Год: 1997
Жанр: Шансон
Издание: Classic Company CC 980017
Источник (релизер): eloychik ®
Продолжительность: 00:44:58
Кодек: FLAC
Битрейт: Lossless
Тип рипа: image + .cue
Треклист:
01. Малолетка
02. Пьяная
03. Курносая
04. Камень
05. Церковь
06. На больничной кровати
07. Маленькая девочка с панели
08. Грусть
09. Анна
10. Дворик
11. Наплевать

Продолжение треклиста:

12. Херсон
13. Гроза
14. Я прошу тебя уйди
15. Вовка

Отчёт ЕАС:

Exact Audio Copy V1.3 from 2. September 2016
Отчёт EAC об извлечении, выполненном 19. ноября 2018, 23:28
Ира Ежова / Малолетка
Дисковод: ASUS DRW-24F1MT Adapter: 1 ID: 0
Режим чтения : Достоверность
Использование точного потока : Да
Отключение кэша аудио : Да
Использование указателей C2 : Нет
Коррекция смещения при чтении : 6
Способность читать области Lead-in и Lead-out : Нет
Заполнение пропущенных сэмплов тишиной : Да
Удаление блоков с тишиной в начале и конце : Нет
При вычислениях CRC использовались нулевые сэмплы : Да
Интерфейс : Встроенный Win32-интерфейс для Win NT/2000
Выходной формат : Пользовательский кодировщик
Выбранный битрейт : 128 kBit/s
Качество : Высокий
Добавление ID3-тега : Нет
Утилита сжатия : C:\Program Files (x86)\Exact Audio Copy\Flac\flac.exe
Дополнительные параметры : -V -8 -T "Date=%year%" -T "Genre=%genre%" %source%
TOC извлечённого CD
Трек | Старт | Длительность | Начальный сектор | Конечный сектор
---------------------------------------------------------------------
1 | 0:00.00 | 2:26.60 | 0 | 11009
2 | 2:26.60 | 2:21.22 | 11010 | 21606
3 | 4:48.07 | 2:19.46 | 21607 | 32077
4 | 7:07.53 | 2:06.73 | 32078 | 41600
5 | 9:14.51 | 4:10.28 | 41601 | 60378
6 | 13:25.04 | 3:46.45 | 60379 | 77373
7 | 17:11.49 | 2:38.53 | 77374 | 89276
8 | 19:50.27 | 3:27.52 | 89277 | 104853
9 | 23:18.04 | 2:38.52 | 104854 | 116755
10 | 25:56.56 | 4:04.37 | 116756 | 135092
11 | 30:01.18 | 3:15.56 | 135093 | 149773
12 | 33:16.74 | 2:21.55 | 149774 | 160403
13 | 35:38.54 | 3:18.17 | 160404 | 175270
14 | 38:56.71 | 3:00.64 | 175271 | 188834
15 | 41:57.60 | 3:00.25 | 188835 | 202359
Характеристики диапазона извлечения и сообщения об ошибках
Выбранный диапазон
Имя файла E:\Раздачи\Ира Ежова - Малолетка.wav
Пиковый уровень 97.7 %
Скорость извлечения 2.3 X
Качество диапазона 99.9 %
CRC теста E8B53F3D
CRC копии E8B53F3D
Копирование... OK
Ошибок не произошло
AccurateRip: сводка
Трек 1 отсутствует в базе данных
Трек 2 отсутствует в базе данных
Трек 3 отсутствует в базе данных
Трек 4 отсутствует в базе данных
Трек 5 отсутствует в базе данных
Трек 6 отсутствует в базе данных
Трек 7 отсутствует в базе данных
Трек 8 отсутствует в базе данных
Трек 9 отсутствует в базе данных
Трек 10 отсутствует в базе данных
Трек 11 отсутствует в базе данных
Трек 12 отсутствует в базе данных
Трек 13 отсутствует в базе данных
Трек 14 отсутствует в базе данных
Трек 15 отсутствует в базе данных
Ни одного трека нет в базе AccurateRip
Конец отчёта
==== Контрольная сумма отчёта 6AACE0E7BBCEC91E5DD752B072647DD76D814C072E7BF415BE24ACBDA10DA4C2 ====

Cue Sheet (.cue):

REM GENRE Chanson
REM DATE 1997
REM DISCID C30A8A0F
REM COMMENT "ExactAudioCopy v1.3"
PERFORMER "Ира Ежова"
TITLE "Малолетка"
REM COMPOSER ""
FILE "Ира Ежова - Малолетка.flac" WAVE
TRACK 01 AUDIO
TITLE "Малолетка"
PERFORMER "Ира Ежова"
REM COMPOSER ""
INDEX 01 00:00:00
TRACK 02 AUDIO
TITLE "Пьяная"
PERFORMER "Ира Ежова"
REM COMPOSER ""
INDEX 00 02:24:60
INDEX 01 02:26:60
TRACK 03 AUDIO
TITLE "Курносая"
PERFORMER "Ира Ежова"
REM COMPOSER ""
INDEX 00 04:46:08
INDEX 01 04:48:07
TRACK 04 AUDIO
TITLE "Камень"
PERFORMER "Ира Ежова"
REM COMPOSER ""
INDEX 00 07:05:54
INDEX 01 07:07:53
TRACK 05 AUDIO
TITLE "Церковь"
PERFORMER "Ира Ежова"
REM COMPOSER ""
INDEX 00 09:12:51
INDEX 01 09:14:51
TRACK 06 AUDIO
TITLE "На больничной кровати"
PERFORMER "Ира Ежова"
REM COMPOSER ""
INDEX 00 13:23:04
INDEX 01 13:25:04
TRACK 07 AUDIO
TITLE "Маленькая девочка c панели"
PERFORMER "Ира Ежова"
REM COMPOSER ""
INDEX 00 17:09:50
INDEX 01 17:11:49
TRACK 08 AUDIO
TITLE "Грусть"
PERFORMER "Ира Ежова"
REM COMPOSER ""
INDEX 00 19:48:28
INDEX 01 19:50:27
TRACK 09 AUDIO
TITLE "Анна"
PERFORMER "Ира Ежова"
REM COMPOSER ""
INDEX 00 23:16:05
INDEX 01 23:18:04
TRACK 10 AUDIO
TITLE "Дворик"
PERFORMER "Ира Ежова"
REM COMPOSER ""
INDEX 00 25:54:57
INDEX 01 25:56:56
TRACK 11 AUDIO
TITLE "Наплевать"
PERFORMER "Ира Ежова"
REM COMPOSER ""
INDEX 00 29:59:18
INDEX 01 30:01:18
TRACK 12 AUDIO
TITLE "Херсон"
PERFORMER "Ира Ежова"
REM COMPOSER ""
INDEX 00 33:15:00
INDEX 01 33:16:74
TRACK 13 AUDIO
TITLE "Гроза"
PERFORMER "Ира Ежова"
REM COMPOSER ""
INDEX 00 35:36:55
INDEX 01 35:38:54
TRACK 14 AUDIO
TITLE "Я прошу тебя уйди"
PERFORMER "Ира Ежова"
REM COMPOSER ""
INDEX 00 38:54:71
INDEX 01 38:56:71
TRACK 15 AUDIO
TITLE "Вовка"
PERFORMER "Ира Ежова"
REM COMPOSER ""
INDEX 00 41:55:61
INDEX 01 41:57:60

Отчёт auCDtect Task manager:

-----------------------
DON'T MODIFY THIS FILE
-----------------------
PERFORMER: auCDtect Task Manager, ver. 1.6.0 RC1 build 1.6.0.1
Copyright (c) 2008-2010 y-soft. All rights reserved
ANALYZER: auCDtect: CD records authenticity detector, version 0.8.2
Copyright (c) 2004 Oleg Berngardt. All rights reserved.
Copyright (c) 2004 Alexander Djourik. All rights reserved.
FILE: Ира Ежова - Малолетка.flac
Size: 326404019 Hash: 5DBEF40052DBF40B1D1B8B621ABC215F Accuracy: -m0
Conclusion: CDDA 100%
Signature: B5FA8987858EBA2EB86B1E9568ADBFA95093C633

[Цитировать]

в свое время, мы ее называли - Ира Лажова

[Цитировать]



Показать сообщения:    

Текущее время: 04-Дек 21:00

Часовой пояс: UTC + 6


Вы не можете начинать темы
Вы не можете отвечать на сообщения
Вы не можете редактировать свои сообщения
Вы не можете удалять свои сообщения
Вы не можете голосовать в опросах
Вы не можете прикреплять файлы к сообщениям
Вы не можете скачивать файлы

!ВНИМАНИЕ!
Сайт не предоставляет электронные версии произведений, а занимается лишь коллекционированием и каталогизацией ссылок, присылаемых и публикуемых на форуме нашими читателями. Если вы являетесь правообладателем какого-либо представленного материала и не желаете, чтобы ссылка на него находилась в нашем каталоге, свяжитесь с нами, и мы незамедлительно удалим ее. Файлы для обмена на трекере предоставлены пользователями сайта, и администрация не несет ответственности за их содержание. Просьба не заливать файлы, защищенные авторскими правами, а также файлы нелегального содержания!