***Уважаемые пользователи и гости !!! Сайт переехал на новый домен Torrents-club.info. Просьба изменить ваши закладки! ***
 
[ Сегодня идет свободное скачивание без начисления Download ]


Статистика раздачи
Нет
 
   
 
 
 
Улетный экипаж (2018) WEB-DLRip - Производство: Россия / Продюсерский центр «ГОРАД», при участии «ВВП Альянс»
Жанр: комедия
Режиссер: Марюс Вайсберг, Ольга Липатова, Дмитрий Губарев
Актеры: Алексей Чадов, Наталья Бардо, Никита Тарасов, Юлия Топольницкая, Виктория Дайнеко, Яна Крайнова, Дарья Сагалова, Катрин Асси, Сергей Белов, Андрей Родной, Илья Рогов и др.
Описание:
«Девушка за штурвалом самолёта – что может быть хуже?» – думал пилот Лёша Кулагин, пока его страхи не оправдались. С помощью шантажа умница, красавица и лучшая в лётном училище Полина Овечкина уговаривает упрямого грубияна бросить грузовые самолёты, возглавить гражданский экипаж и взять её вторым пилотом. Просто Кулагин – единственный шанс Полины, наконец-то, отточить теоретические знания на практике. Ведь лётчики авиакомпании «Восторг Авиа» не готовы делить самолёт хоть и с профессионалом, но на каблуках. Пока она пытается подружиться с новым коллегой, Кулагин строит коварные планы, чтобы вернуть ненавистную соседку на землю.

Возраст: 16+ (зрителям, достигшим 16 лет)
Продолжительность: ~00:25:00 серия
Качество видео: WEB-DLRip
Видео: Xvid, 720x400 (16:9), ~1620 Kbps
Аудио: AC3, 2 ch, 192 Kbps

Mediainfo:

Общее
Полное имя : G:\Улетный экипаж (Сезон 2).2018\Серия 01.avi
Формат : AVI
Формат/Информация : Audio Video Interleave
Размер файла : 303 Мбайт
Продолжительность : 23 м. 18 с.
Общий поток : 1820 Кбит/сек
Программа кодирования : VirtualDubMod 1.5.10.3 | www.virtualdub-fr.org || (build 2550/release)
Библиотека кодирования : VirtualDubMod build 2550/release
Видео
Идентификатор : 0
Формат : MPEG-4 Visual
Профиль формата : Advanced Simple@L5
Настройки формата : BVOP1
Параметр BVOP формата : 1
Параметр QPel формата : Нет
Параметр GMC формата : Без точки перехода
Параметр матрицы формата : Default (MPEG)
Идентификатор кодека : XVID
Идентификатор кодека/Подсказка : XviD
Продолжительность : 23 м. 18 с.
Битрейт : 1618 Кбит/сек
Ширина : 720 пикселей
Высота : 400 пикселей
Соотношение сторон : 16:9
Частота кадров : 25,000 кадров/сек
Цветовое пространство : YUV
Субдискретизация насыщенности : 4:2:0
Битовая глубина : 8 бит
Тип развёртки : Прогрессивная
Метод сжатия : С потерями
Бит/(Пиксели*Кадры) : 0.225
Размер потока : 270 Мбайт (89%)
Библиотека кодирования : XviD 1.2.1 (UTC 2008-12-04)
Аудио
Идентификатор : 1
Формат : AC-3
Формат/Информация : Audio Coding 3
Коммерческое название : Dolby Digital
Идентификатор кодека : 2000
Продолжительность : 23 м. 18 с.
Вид битрейта : Постоянный
Битрейт : 192 Кбит/сек
Каналы : 2 канала
Channel layout : L R
Частота : 48,0 КГц
Частота кадров : 31,250 кадров/сек (1536 SPF)
Битовая глубина : 16 бит
Метод сжатия : С потерями
Размер потока : 32,0 Мбайт (11%)
Выравнивание : Разделение по промежуткам
Продолжительность промежутка : 40 мс. (1,00 видеокадр)
Время предзагрузки промежутка : 500 мс.
ServiceKind/String : Complete Main

Внимание! Раздача ведётся путём добавления новых серий

Внимание! Раздача ведётся путём добавления новых серий; при каждом добавлении создаётся новый торрент.
Чтобы начать докачку новой серии, пользователям необходимо сделать следующее:
1. Остановить скачивание;
2. Удалить старый торрент у себя из клиента (старые серии удалять не надо);
3. Скачать новый торрент и запустить его у себя в клиенте вместо старого, при этом указать клиенту путь в старую папку куда и должно происходить скачивание новых серий. Ваш клиент при этом должен произвести хеширование (проверку) старой папки и будет докачивать только те серии, которых у вас ещё нет. Старые серии при этом не удаляются, а продолжают раздаваться! Eсли вы уже удалили старые серии, то предотвратить повторную закачку старых серий можно, отжав галочку в соответствующих местах при запуске нового торрента.

График выхода новых серий:

Скриншоты:

[Цитировать]



Показать сообщения:    

Текущее время: 24-Май 00:19

Часовой пояс: UTC + 6


Вы не можете начинать темы
Вы не можете отвечать на сообщения
Вы не можете редактировать свои сообщения
Вы не можете удалять свои сообщения
Вы не можете голосовать в опросах
Вы не можете прикреплять файлы к сообщениям
Вы не можете скачивать файлы

!ВНИМАНИЕ!
Сайт не предоставляет электронные версии произведений, а занимается лишь коллекционированием и каталогизацией ссылок, присылаемых и публикуемых на форуме нашими читателями. Если вы являетесь правообладателем какого-либо представленного материала и не желаете, чтобы ссылка на него находилась в нашем каталоге, свяжитесь с нами, и мы незамедлительно удалим ее. Файлы для обмена на трекере предоставлены пользователями сайта, и администрация не несет ответственности за их содержание. Просьба не заливать файлы, защищенные авторскими правами, а также файлы нелегального содержания!