***Уважаемые пользователи и гости !!! Сайт переехал на новый домен Torrents-club.info. Просьба изменить ваши закладки! ***
 
[ Сегодня идет свободное скачивание без начисления Download ]


Статистика раздачи
Нет
 
   
 
 
 
Доминика - Информация
Производство: Россия / Mozga.ru Studio
Жанр: Фэнтези, комедия
Режиссер: Олег Агейчев
Актеры: Андрей Чадов, Светлана Устинова, Игорь Жижикин, Александр Шаляпин, Яна Гурьянова, Елена Яковлева, Екатерина Васильева (I), Амет Магомедов, София Бармина, Лиза Измайлова
Описание:
Главный герой фильма Константин — успешный молодой архитектор. Он аккуратно выстраивает карьеру и находится в удобных отношениях с девушкой Яной. Но его спокойная и благополучная жизнь резко меняется, когда однажды на пороге своей квартиры он находит трехмесячную девочку — Доминику. Вскоре у девочки обнаруживается феноменальная способность — взрослеть на несколько лет после каждой вспышки гнева героя. Константин понимает, что Доминика послана ему не напрасно.


Возраст: 12+ (зрителям, достигшим 12 лет)
Дата мировой премьеры: 5 апреля 2018
Дата премьеры в России: 20 сентября 2018
Продолжительность: 01:23:01
Перевод: Не требуется (Русский) iTunes
Файл
Качество видео: WEB-DLRip Сэмпл
Видео: XviD, 704x288, ~2116 Kbps
Аудио: AC-3, 6 ch, 384 Kbps
Субтитры: Отсутствуют

MediaInfo:

Общее
Полное имя : E:\Dominika 2018 WEB-DLRip.avi
Формат : AVI
Формат/Информация : Audio Video Interleave
Размер файла : 1,46 Гбайт
Продолжительность : 1 ч. 23 м.
Общий поток : 2509 Кбит/сек
Программа кодирования : VirtualDubMod 1.5.10.3 | (build 2550/release)
Библиотека кодирования : VirtualDubMod build 2550/release
Видео
Идентификатор : 0
Формат : MPEG-4 Visual
Профиль формата : Advanced Simple@L5
Настройки формата : BVOP1 / Custom Matrix
Параметр BVOP формата : 1
Параметр QPel формата : Нет
Параметр GMC формата : Без точки перехода
Параметр матрицы формата : Выборочная
Идентификатор кодека : XVID
Идентификатор кодека/Подсказка : XviD
Продолжительность : 1 ч. 23 м.
Битрейт : 2116 Кбит/сек
Ширина : 704 пикселя
Высота : 288 пикселей
Соотношение сторон : 2,40:1
Частота кадров : 23,976 (24000/1001) кадра/сек
Цветовое пространство : YUV
Субдискретизация насыщенности : 4:2:0
Битовая глубина : 8 бит
Тип развёртки : Прогрессивная
Метод сжатия : С потерями
Бит/(Пиксели*Кадры) : 0.435
Размер потока : 1,23 Гбайт (84%)
Библиотека кодирования : XviD 73
Аудио
Идентификатор : 1
Формат : AC-3
Формат/Информация : Audio Coding 3
Идентификатор кодека : 2000
Продолжительность : 1 ч. 23 м.
Вид битрейта : Постоянный
Битрейт : 384 Кбит/сек
Каналы : 6 каналов
Расположение каналов : Front: L C R, Side: L R, LFE
Частота : 48,0 КГц
Частота кадров : 31,250 кадров/сек (1536 SPF)
Битовая глубина : 16 бит
Метод сжатия : С потерями
Размер потока : 228 Мбайт (15%)
Выравнивание : Разделение по промежуткам
Продолжительность промежутка : 42 мс. (1,00 видеокадр)
Время предзагрузки промежутка : 500 мс.
ServiceKind/String : Complete Main

Скриншоты

Скриншоты:

[Цитировать]



Показать сообщения:    

Текущее время: 27-Май 17:39

Часовой пояс: UTC + 6


Вы не можете начинать темы
Вы не можете отвечать на сообщения
Вы не можете редактировать свои сообщения
Вы не можете удалять свои сообщения
Вы не можете голосовать в опросах
Вы не можете прикреплять файлы к сообщениям
Вы не можете скачивать файлы

!ВНИМАНИЕ!
Сайт не предоставляет электронные версии произведений, а занимается лишь коллекционированием и каталогизацией ссылок, присылаемых и публикуемых на форуме нашими читателями. Если вы являетесь правообладателем какого-либо представленного материала и не желаете, чтобы ссылка на него находилась в нашем каталоге, свяжитесь с нами, и мы незамедлительно удалим ее. Файлы для обмена на трекере предоставлены пользователями сайта, и администрация не несет ответственности за их содержание. Просьба не заливать файлы, защищенные авторскими правами, а также файлы нелегального содержания!