***Уважаемые пользователи и гости !!! Сайт переехал на новый домен Torrents-club.info. Просьба изменить ваши закладки! ***
 
[ Сегодня идет свободное скачивание без начисления Download ]


Статистика раздачи
Нет
 
   
 
 
 
Магический Дудук - Инструментальные хиты Востока (2004)- Год: 2004
Жанр: Инструментальная
Продолжительность: 01:13:21
Кодек: FLAC
Битрейт: Lossless
Треклист:
1. Sev Mout Amber - (05:34)
2. Eshkhemet - (04:29)
3. Caravan, Kni Im Balig - (04:43)
4. Hovi Ganche - (06:10)
5. Ghazakhi - (07:27)
6. Kalosi Prgen - (04:36)
7. Daran, Daran - (06:39)
8. Sari Aghtchig - (04:18)
9. Hovern Engan - (04:58)
10. Vorsgan Akhper - (04:35)
11. Hey Djan - (03:21)
12. Ashkharooms Akh Chim Kashi - (06:09)
13. Madjkal - (05:48)
14. Akh Im Pokrik Pourasdan - (03:56)
15. Ov Tou Kousan - (05:32

Отчёт ЕАС:

Exact Audio Copy V0.99 prebeta 5 from 4. May 2009
Отчёт EAC об извлечении, выполненном 11. марта 2010, 12:15
Various / Магический Дудук - Инструментальные хиты Востока
Дисковод: ASUS DRW-22B1LT Adapter: 0 ID: 2
Режим чтения : Достоверность
Использование точного потока : Да
Отключение кэша аудио : Да
Использование указателей C2 : Нет
Коррекция смещения при чтении : 6
Способность читать области Lead-in и Lead-out : Нет
Заполнение пропущенных сэмплов тишиной : Да
Удаление блоков с тишиной в начале и конце : Нет
При вычислениях CRC использовались нулевые сэмплы : Нет
Интерфейс : Встроенный Win32-интерфейс для Win NT/2000
Обработка зазоров : Добавлено к предыдущему треку
Выходной формат : Пользовательский кодировщик
Выбранный битрейт : 768 kBit/s
Качество : Высокий
Добавление ID3-тэга : Нет
Утилита сжатия : C:\Program Files\Exact Audio Copy\FLAC\FLAC.EXE
Дополнительные параметры : -6 -V -T "ARTIST=%a" -T "TITLE=%t" -T "ALBUM=%g" -T "DATE=%y" -T "TRACKNUMBER=%n" -T "GENRE=%m" -T "COMMENT=%e" %s -o %d
TOC извлечённого CD
Трек | Старт | Длительность | Начальный сектор | Конечный сектор
---------------------------------------------------------------------
1 | 0:00.00 | 5:34.57 | 0 | 25106
2 | 5:34.57 | 4:29.50 | 25107 | 45331
3 | 10:04.32 | 4:43.03 | 45332 | 66559
4 | 14:47.35 | 6:10.16 | 66560 | 94325
5 | 20:57.51 | 7:27.58 | 94326 | 127908
6 | 28:25.34 | 4:36.16 | 127909 | 148624
7 | 33:01.50 | 6:39.06 | 148625 | 178555
8 | 39:40.56 | 4:18.36 | 178556 | 197941
9 | 43:59.17 | 4:58.19 | 197942 | 220310
10 | 48:57.36 | 4:35.38 | 220311 | 240973
11 | 53:32.74 | 3:21.69 | 240974 | 256117
12 | 56:54.68 | 6:09.35 | 256118 | 283827
13 | 63:04.28 | 5:48.17 | 283828 | 309944
14 | 68:52.45 | 3:56.56 | 309945 | 327700
15 | 72:49.26 | 5:32.00 | 327701 | 352600
Трек 1
Имя файла ...\Магический Дудук - Инструментальные хиты Востока\01. Sev Mout Amber.wav
Длина предзазора 0:00:02.00
Пиковый уровень 91.0 %
Качество трека 99.9 %
CRC теста 4614528A
CRC копии 4614528A
Копирование... OK
Трек 2
Имя файла ...\Магический Дудук - Инструментальные хиты Востока\02. Eshkhemet.wav
Длина предзазора 0:00:00.06
Пиковый уровень 91.0 %
Качество трека 100.0 %
CRC теста 892D1937
CRC копии 646221EE
Копирование... OK
Трек 3
Имя файла ...\Магический Дудук - Инструментальные хиты Востока\03. Caravan, Kni Im Balig.wav
Длина предзазора 0:00:00.11
Пиковый уровень 91.0 %
Качество трека 100.0 %
CRC теста 83BDA46A
CRC копии 1A39F1EC
Копирование... OK
Трек 4
Имя файла ...\Магический Дудук - Инструментальные хиты Востока\04. Hovi Ganche.wav
Пиковый уровень 91.0 %
Качество трека 99.9 %
CRC теста 7F94C3E2
CRC копии C06CC84C
Копирование... OK
Трек 5
Имя файла ...\Магический Дудук - Инструментальные хиты Востока\05. Ghazakhi.wav
Длина предзазора 0:00:00.11
Пиковый уровень 91.0 %
Качество трека 100.0 %
CRC теста AC73BD00
CRC копии AC73BD00
Копирование... OK
Трек 6
Имя файла ...\Магический Дудук - Инструментальные хиты Востока\06. Kalosi Prgen.wav
Пиковый уровень 91.0 %
Качество трека 100.0 %
CRC теста 5E410DAA
CRC копии 5E410DAA
Копирование... OK
Трек 7
Имя файла ...\Магический Дудук - Инструментальные хиты Востока\07. Daran, Daran.wav
Длина предзазора 0:00:00.03
Пиковый уровень 91.0 %
Качество трека 100.0 %
CRC теста 628827FA
CRC копии 628827FA
Копирование... OK
Трек 8
Имя файла ...\Магический Дудук - Инструментальные хиты Востока\08. Sari Aghtchig.wav
Пиковый уровень 91.0 %
Качество трека 100.0 %
CRC теста EB0EF1FC
CRC копии EB0EF1FC
Копирование... OK
Трек 9
Имя файла ...\Магический Дудук - Инструментальные хиты Востока\09. Hovern Engan.wav
Длина предзазора 0:00:00.09
Пиковый уровень 91.0 %
Качество трека 99.9 %
CRC теста 1558BE7C
CRC копии 1558BE7C
Копирование... OK
Трек 10
Имя файла ...\Магический Дудук - Инструментальные хиты Востока\10. Vorsgan Akhper.wav
Длина предзазора 0:00:00.01
Пиковый уровень 91.0 %
Качество трека 99.8 %
CRC теста AE98997F
CRC копии AE98997F
Копирование... OK
Трек 11
Имя файла ...\Магический Дудук - Инструментальные хиты Востока\11. Hey Djan.wav
Длина предзазора 0:00:00.18
Пиковый уровень 91.0 %
Качество трека 99.9 %
CRC теста A572C331
CRC копии A572C331
Копирование... OK
Трек 12
Имя файла ...\Магический Дудук - Инструментальные хиты Востока\12. Ashkharooms Akh Chim Kashi.wav
Длина предзазора 0:00:00.08
Пиковый уровень 91.0 %
Качество трека 100.0 %
CRC теста 23AC7C98
CRC копии 23AC7C98
Копирование... OK
Трек 13
Имя файла ...\Магический Дудук - Инструментальные хиты Востока\13. Madjkal.wav
Пиковый уровень 91.0 %
Качество трека 99.8 %
CRC теста 5630BC37
CRC копии 2DAE4D8B
Копирование... OK
Трек 14
Имя файла ...\Магический Дудук - Инструментальные хиты Востока\14. Akh Im Pokrik Pourasdan.wav
Пиковый уровень 91.0 %
Качество трека 99.9 %
CRC теста 27C18347
CRC копии 27C18347
Копирование... OK
Трек 15
Имя файла ...\Магический Дудук - Инструментальные хиты Востока\15. Ov Tou Kousan.wav
Длина предзазора 0:00:00.02
Пиковый уровень 91.0 %
Качество трека 99.9 %
CRC теста 2B21D692
CRC копии 1E497A5F
Копирование... OK
Ошибок не произошло
Конец отчёта

Отчёт Audiochecker:

AUDIOCHECKER v2.0 beta (build 457) - by Dester - opdester@freemail.hu
~~~~~~~~~~~~~~~~~~~~~~~~~~~~~~~~~~
-=== НЕ РЕДАКТИРУЙТЕ ЭТОТ ФАЙЛ! ===-
Путь: ...\Магический Дудук - Инструментальные хиты Востока
01 -=- 01. Sev Mout Amber.flac -=- CDDA (100%)
02 -=- 02. Eshkhemet.flac -=- CDDA (99%)
03 -=- 03. Caravan, Kni Im Balig.flac -=- CDDA (95%)
04 -=- 04. Hovi Ganche.flac -=- CDDA (100%)
05 -=- 05. Ghazakhi.flac -=- CDDA (100%)
06 -=- 06. Kalosi Prgen.flac -=- CDDA (100%)
07 -=- 07. Daran, Daran.flac -=- CDDA (99%)
08 -=- 08. Sari Aghtchig.flac -=- CDDA (99%)
09 -=- 09. Hovern Engan.flac -=- CDDA (100%)
10 -=- 10. Vorsgan Akhper.flac -=- CDDA (100%)
11 -=- 11. Hey Djan.flac -=- CDDA (99%)
12 -=- 12. Ashkharooms Akh Chim Kashi.flac -=- CDDA (100%)
13 -=- 13. Madjkal.flac -=- CDDA (99%)
14 -=- 14. Akh Im Pokrik Pourasdan.flac -=- CDDA (100%)
15 -=- 15. Ov Tou Kousan.flac -=- CDDA (99%)
Сводка 99,26% CDDA
85354292

[Цитировать]



Показать сообщения:    

Текущее время: 04-Дек 21:56

Часовой пояс: UTC + 6


Вы не можете начинать темы
Вы не можете отвечать на сообщения
Вы не можете редактировать свои сообщения
Вы не можете удалять свои сообщения
Вы не можете голосовать в опросах
Вы не можете прикреплять файлы к сообщениям
Вы не можете скачивать файлы

!ВНИМАНИЕ!
Сайт не предоставляет электронные версии произведений, а занимается лишь коллекционированием и каталогизацией ссылок, присылаемых и публикуемых на форуме нашими читателями. Если вы являетесь правообладателем какого-либо представленного материала и не желаете, чтобы ссылка на него находилась в нашем каталоге, свяжитесь с нами, и мы незамедлительно удалим ее. Файлы для обмена на трекере предоставлены пользователями сайта, и администрация не несет ответственности за их содержание. Просьба не заливать файлы, защищенные авторскими правами, а также файлы нелегального содержания!