***Уважаемые пользователи и гости !!! Сайт переехал на новый домен Torrents-club.info. Просьба изменить ваши закладки! ***
 
[ Сегодня идет свободное скачивание без начисления Download ]


Статистика раздачи
Нет
 
   
 
 
 
Катя Огонек - Аллея шансона (2011)- Год: 2011
Жанр: Шансон
Продолжительность: 01:13:29
Label: Квадро-Диск
Catalog #: RMG MK-018
Кодек: FLAC
Битрейт: Lossless
Треклист:
01. Дорожный роман (5:32)
02. Алюминиевый крестик (3:52)
03. Я ревную тебя (4:40)
04. Зацелую, залюблю (2:55)
05. Далеко-далеко (3:14)
06. Глупенький (3:27)
07. Подруженька (3:43)
08. Здравствуй, любовь (5:03)
09. Хакинск (5:04)
10. Лейтенантик (4:27)
11. Я зажгу для тебя огонек (3:33)
12. Скажи, что ты любишь (4:46)
13. Вино любви (4:03)
14. Дочка (3:22)
15. Я не могу без него (3:27)
16. А я пою (3:30)
17. В сердце моем (4:32)
18. Северная ночь (4:20)

Отчёт ЕАС:

Exact Audio Copy V1.0 beta 1 from 15. November 2010
EAC extraction logfile from 2. June 2011, 19:27
Катя Огонек / Аллея шансона. Коллекция МК
Used drive : HL-DT-STDVDRAM GT20L Adapter: 1 ID: 0
Read mode : Secure
Utilize accurate stream : Yes
Defeat audio cache : Yes
Make use of C2 pointers : No
Read offset correction : 667
Overread into Lead-In and Lead-Out : No
Fill up missing offset samples with silence : Yes
Delete leading and trailing silent blocks : No
Null samples used in CRC calculations : Yes
Used interface : Native Win32 interface for Win NT & 2000
Used output format : User Defined Encoder
Selected bitrate : 1024 kBit/s
Quality : High
Add ID3 tag : No
Command line compressor : C:\Program Files (x86)\Exact Audio Copy\FLAC\FLAC.EXE
Additional command line options : -8 -V %s
TOC of the extracted CD
Track | Start | Length | Start sector | End sector
---------------------------------------------------------
1 | 0:00.00 | 5:31.59 | 0 | 24883
2 | 5:31.59 | 3:52.13 | 24884 | 42296
3 | 9:23.72 | 4:40.21 | 42297 | 63317
4 | 14:04.18 | 2:55.19 | 63318 | 76461
5 | 16:59.37 | 3:13.49 | 76462 | 90985
6 | 20:13.11 | 3:26.50 | 90986 | 106485
7 | 23:39.61 | 3:43.04 | 106486 | 123214
8 | 27:22.65 | 5:02.70 | 123215 | 145934
9 | 32:25.60 | 5:04.33 | 145935 | 168767
10 | 37:30.18 | 4:26.56 | 168768 | 188773
11 | 41:56.74 | 3:32.49 | 188774 | 204722
12 | 45:29.48 | 4:45.50 | 204723 | 226147
13 | 50:15.23 | 4:02.70 | 226148 | 244367
14 | 54:18.18 | 3:21.71 | 244368 | 259513
15 | 57:40.14 | 3:26.66 | 259514 | 275029
16 | 61:07.05 | 3:29.71 | 275030 | 290775
17 | 64:37.01 | 4:31.71 | 290776 | 311171
18 | 69:08.72 | 4:19.45 | 311172 | 330641
Range status and errors
Selected range
Filename C:\Users\Odemwingie\Desktop\Катя Огонек - Аллея шансона. Коллекция МК.wav
Peak level 97.9 %
Extraction speed 0.1 X
Range quality 100.0 %
Test CRC 4BCDE7F1
Copy CRC 4BCDE7F1
Copy OK
No errors occurred
End of status report

Отчёт auCDtect Task manager:

-----------------------
DON'T MODIFY THIS FILE
-----------------------
PERFORMER: auCDtect Task Manager, ver. 1.5.1RC4 build 1.5.1.5
Copyright (c) 2008-2010 y-soft. All rights reserved
http://y-soft.org
ANALYZER: auCDtect: CD records authenticity detector, version 0.8.2
Copyright (c) 2004 Oleg Berngardt. All rights reserved.
Copyright (c) 2004 Alexander Djourik. All rights reserved.
FILE: Катя Огонек - Аллея шансона. Коллекция МК.flac
Size: 522643101 Hash: 7054CD3D5201E4946757310AF3345639 Accuracy: -m8
Conclusion: CDDA 100%
Signature: 692C4A5B30C0D4334C179CD420F6FBE3D915D554

[Цитировать]



Показать сообщения:    

Текущее время: 04-Дек 21:54

Часовой пояс: UTC + 6


Вы не можете начинать темы
Вы не можете отвечать на сообщения
Вы не можете редактировать свои сообщения
Вы не можете удалять свои сообщения
Вы не можете голосовать в опросах
Вы не можете прикреплять файлы к сообщениям
Вы не можете скачивать файлы

!ВНИМАНИЕ!
Сайт не предоставляет электронные версии произведений, а занимается лишь коллекционированием и каталогизацией ссылок, присылаемых и публикуемых на форуме нашими читателями. Если вы являетесь правообладателем какого-либо представленного материала и не желаете, чтобы ссылка на него находилась в нашем каталоге, свяжитесь с нами, и мы незамедлительно удалим ее. Файлы для обмена на трекере предоставлены пользователями сайта, и администрация не несет ответственности за их содержание. Просьба не заливать файлы, защищенные авторскими правами, а также файлы нелегального содержания!