***Уважаемые пользователи и гости !!! Сайт переехал на новый домен Torrents-club.info. Просьба изменить ваши закладки! ***
 
[ Сегодня идет свободное скачивание без начисления Download ]


Статистика раздачи
Нет
 
   
 
 
 
Катя Огонёк - Super Hits Collection (2013)- Год издания: 2013
Жанр: Шансон
Продолжительность: 01:13:47
Издатель (лейбл): Студия Классик Компани, Квадро-Диск
Сканы: Комплект
Каталог №: CC CD 04/13
Тип рипа: image+.cue
Кодек: FLAC
Битрейт: lossless
Треклист:
1. В северную ночь
2. Глупенький
3. Горький мед
4. Не просить, не бояться, не верить
5. Браслетик
6. Я ревную тебя
7. Тук-тук
8. Лейтенантик
9. Говорила мне мать
10. Дочка
11. Далеко-далеко (с Владимир Черняков)
12. Белая тайга
13. Через года
14. Алюминиевый крестик

Продолжения трек листа:


15. Вино любви (с Владимир Черняков)
16. Жиган
17. Татуировочка
18. Я не могу без него
19. У дальней пристани
20. Катя

Отчёт ЕАС:

Exact Audio Copy V1.0 beta 1 from 15. November 2010
Отчёт EAC об извлечении, выполненном 2. апреля 2013, 20:24
Катя Огонёк / «SUPER HITS COLLECTION»
Дисковод: _NEC DV-5800E Adapter: 0 ID: 1
Режим чтения : Достоверность
Использование точного потока : Да
Отключение кэша аудио : Да
Использование указателей C2 : Нет
Коррекция смещения при чтении : 6
Способность читать области Lead-in и Lead-out : Нет
Заполнение пропущенных сэмплов тишиной : Да
Удаление блоков с тишиной в начале и конце : Нет
При вычислениях CRC использовались нулевые сэмплы : Да
Интерфейс : Установленный внешний ASPI-интерфейс
Выходной формат : Внутренние WAV-операции
Формат сэмплов : 44.100 Гц; 16 бит; стерео
TOC извлечённого CD
Трек | Старт | Длительность | Начальный сектор | Конечный сектор
---------------------------------------------------------------------
1 | 0:00.00 | 4:19.19 | 0 | 19443
2 | 4:19.19 | 3:24.00 | 19444 | 34743
3 | 7:43.19 | 3:16.14 | 34744 | 49457
4 | 10:59.33 | 3:55.20 | 49458 | 67102
5 | 14:54.53 | 3:25.58 | 67103 | 82535
6 | 18:20.36 | 4:33.53 | 82536 | 103063
7 | 22:54.14 | 3:25.31 | 103064 | 118469
8 | 26:19.45 | 4:24.72 | 118470 | 138341
9 | 30:44.42 | 3:55.07 | 138342 | 155973
10 | 34:39.49 | 3:19.67 | 155974 | 170965
11 | 37:59.41 | 3:11.26 | 170966 | 185316
12 | 41:10.67 | 4:47.12 | 185317 | 206853
13 | 45:58.04 | 3:06.14 | 206854 | 220817
14 | 49:04.18 | 3:49.18 | 220818 | 238010
15 | 52:53.36 | 4:00.44 | 238011 | 256054
16 | 56:54.05 | 4:03.51 | 256055 | 274330
17 | 60:57.56 | 3:04.69 | 274331 | 288199
18 | 64:02.50 | 3:24.54 | 288200 | 303553
19 | 67:27.29 | 3:54.18 | 303554 | 321121
20 | 71:21.47 | 2:25.33 | 321122 | 332029
Характеристики диапазона извлечения и сообщения об ошибках
Выбранный диапазон
Имя файла C:\Documents and Settings\Admin\Рабочий стол\Катя Огонёк - «SUPER HITS COLLECTION» (2013г.)\Катя Огонёк - «SUPER HITS COLLECTION».wav
Пиковый уровень 96.6 %
0.3 X
Качество диапазона 99.9 %
CRC теста 838366C0
CRC копии 838366C0
Копирование... OK
Ошибок не произошло
AccurateRip: сводка
Трек 1 нет в базе данных
Трек 2 нет в базе данных
Трек 3 нет в базе данных
Трек 4 нет в базе данных
Трек 5 нет в базе данных
Трек 6 нет в базе данных
Трек 7 нет в базе данных
Трек 8 нет в базе данных
Трек 9 нет в базе данных
Трек 10 нет в базе данных
Трек 11 нет в базе данных
Трек 12 нет в базе данных
Трек 13 нет в базе данных
Трек 14 нет в базе данных
Трек 15 нет в базе данных
Трек 16 нет в базе данных
Трек 17 нет в базе данных
Трек 18 нет в базе данных
Трек 19 нет в базе данных
Трек 20 нет в базе данных
Ни одного трека нет в базе AccurateRip
Конец отчёта

Отчёт auCDtect Task manager:

-----------------------
DON'T MODIFY THIS FILE
-----------------------
PERFORMER: auCDtect Task Manager, ver. 1.5.1RC6 build 1.5.1.7
Copyright (c) 2008-2010 y-soft. All rights reserved
ANALYZER: auCDtect: CD records authenticity detector, version 0.8.2
Copyright (c) 2004 Oleg Berngardt. All rights reserved.
Copyright (c) 2004 Alexander Djourik. All rights reserved.
FILE: Катя Огонёк - «SUPER HITS COLLECTION».flac
Size: 585609324 Hash: 9AB40BA25242BCCFF11BCD9AEF63D901 Accuracy: -m0
Conclusion: CDDA 100%
Signature: 9DDD4FC33AB9C936A329056D93C5EB206BC6B063

[Цитировать]



Показать сообщения:    

Текущее время: 24-Май 00:23

Часовой пояс: UTC + 6


Вы не можете начинать темы
Вы не можете отвечать на сообщения
Вы не можете редактировать свои сообщения
Вы не можете удалять свои сообщения
Вы не можете голосовать в опросах
Вы не можете прикреплять файлы к сообщениям
Вы не можете скачивать файлы

!ВНИМАНИЕ!
Сайт не предоставляет электронные версии произведений, а занимается лишь коллекционированием и каталогизацией ссылок, присылаемых и публикуемых на форуме нашими читателями. Если вы являетесь правообладателем какого-либо представленного материала и не желаете, чтобы ссылка на него находилась в нашем каталоге, свяжитесь с нами, и мы незамедлительно удалим ее. Файлы для обмена на трекере предоставлены пользователями сайта, и администрация не несет ответственности за их содержание. Просьба не заливать файлы, защищенные авторскими правами, а также файлы нелегального содержания!