***Уважаемые пользователи и гости !!! Сайт переехал на новый домен Torrents-club.info. Просьба изменить ваши закладки! ***
 
[ Сегодня идет свободное скачивание без начисления Download ]


Статистика раздачи
Нет
 
   
 
 
 
Отравленная жизнь [01-04 из 04] (2018)
Год выпуска: 2018
Производство: Марс Медиа
Жанр: детектив
Продолжительность: ~00:43:00 серия
Субтитры: нет
Режиссёр: Юрий Попович
В ролях: Елена Великанова, Максим Щёголев, Любовь Германова, Валерий Сторожик, Виктория Герасимова, Максим Сапрыкин, Дмитрий Фрид, Андрей Межулис, Ольга Герасимова, Михаил Дорожкин, Александр Сетейкин, Никита Манилов, Анастасия Богатырева, Алексей Гнилицкий
Описание:
Александра с Грековым готовятся к свадьбе и ведут расследование загадочной гибели юной студентки-художницы. Сказочное убранство места происшествия, веретено с золотыми нитями, разбитое зеркало и необычный наряд жертвы заставляют Сашу вспомнить об итальянской живописи раннего возрождения. Но эта жертва оказывается не последней.
Реклама: Нет.
Кинопоиск
Sample
Качество: WEBRip 720p -
Формат: MKV
Видео кодек: H.264
Аудио кодек: AC3
Видео: MPEG4 AVC Video, H264, 16:9, 1280x720, 25 fps, ~3200 kbps, 0.139 bit/pixel
Аудио: AC3 Dolby Digital, 48.0 kHz, 2/0 (L,R) ch, 192 kbps

MI

General
Unique ID : 245233625537170027793436380659117212291 (0xB87E473D4F641D33A5EEA1258F2C4283)
Complete name : D:\Otravlennaya.zhizn.2018.WEB-DL.(720p).Getty\Otravlennaya.zhizn.e01.2018.WEB-DL.(720p).Getty.mkv
Format : Matroska
Format version : Version 4 / Version 2
File size : 1.00 GiB
Duration : 43 min 44 s
Overall bit rate mode : Constant
Overall bit rate : 3 285 kb/s
Movie name : Otravlennaya.zhizn.e01.2018.WEB-DL.(720p).Getty
Encoded date : UTC 2018-12-07 20:24:48
Writing application : mkvmerge v7.8.0 ('River Man') 32bit built on Mar 27 2015 16:18:02
Writing library : libebml v1.3.1 + libmatroska v1.4.2
Video
ID : 1
Format : AVC
Format/Info : Advanced Video Codec
Format profile : High@L4.1
Format settings : CABAC / 4 Ref Frames
Format settings, CABAC : Yes
Format settings, ReFrames : 4 frames
Codec ID : V_MPEG4/ISO/AVC
Duration : 43 min 44 s
Bit rate mode : Constant
Bit rate : 3 200 kb/s
Width : 1 280 pixels
Height : 720 pixels
Display aspect ratio : 16:9
Frame rate mode : Constant
Frame rate : 25.000 FPS
Color space : YUV
Chroma subsampling : 4:2:0
Bit depth : 8 bits
Scan type : Progressive
Bits/(Pixel*Frame) : 0.139
Stream size : 967 MiB (94%)
Default : Yes
Forced : No
Audio
ID : 2
Format : AC-3
Format/Info : Audio Coding 3
Codec ID : A_AC3
Duration : 43 min 44 s
Bit rate mode : Constant
Bit rate : 192 kb/s
Channel(s) : 2 channels
Channel positions : Front: L R
Sampling rate : 48.0 kHz
Frame rate : 31.250 FPS (1536 SPF)
Bit depth : 16 bits
Compression mode : Lossy
Stream size : 60.1 MiB (6%)
Service kind : Complete Main
Default : Yes
Forced : No

Скриншоты


[Цитировать]



Показать сообщения:    

Текущее время: 30-Ноя 20:08

Часовой пояс: UTC + 6


Вы не можете начинать темы
Вы не можете отвечать на сообщения
Вы не можете редактировать свои сообщения
Вы не можете удалять свои сообщения
Вы не можете голосовать в опросах
Вы не можете прикреплять файлы к сообщениям
Вы не можете скачивать файлы

!ВНИМАНИЕ!
Сайт не предоставляет электронные версии произведений, а занимается лишь коллекционированием и каталогизацией ссылок, присылаемых и публикуемых на форуме нашими читателями. Если вы являетесь правообладателем какого-либо представленного материала и не желаете, чтобы ссылка на него находилась в нашем каталоге, свяжитесь с нами, и мы незамедлительно удалим ее. Файлы для обмена на трекере предоставлены пользователями сайта, и администрация не несет ответственности за их содержание. Просьба не заливать файлы, защищенные авторскими правами, а также файлы нелегального содержания!