***Уважаемые пользователи и гости !!! Сайт переехал на новый домен Torrents-club.info. Просьба изменить ваши закладки! ***
 
[ Сегодня идет свободное скачивание без начисления Download ]


Статистика раздачи
Нет
 
   
 
 
 
Fancy - D.I.S.C.O. (1999) - Жанр: Euro-Disco
Издание: 69-Records ‎– 74321 66594 2
Продолжительность: 00:59:27
Кодек: FLAC
Битрейт: Lossless
Тип рипа: image + .cue
Треклист:
01.D.I.S.C.O. (Lust For Life) 3:32
02.How Do You Feel Right Now 3:55
03.Japanese Girl 3:14
04.When Clowns Cry 3:51
05.Try My Love Again 4:26
06.Cirque De La Lune 3:26
07.Come Back And Break My Heart 4:02
08.On Fire 3:30
09.Everlasting Dance 4:04
10.When Fancy Cry 3:45
11.Flames Of Love '99 3:57
12.Come Back And Break My Heart (Trance Version) 5:54
13.Disco (Lust For Life) (Extended Version) 6:03
14.How Do You Feel Right Now (Extended Version) 5:49

Отчёт EAC:

Exact Audio Copy V1.0 beta 3 from 29. August 2011
Отчёт EAC об извлечении, выполненном 26. ноября 2018, 22:31
Fancy / D.I.S.C.O.
Дисковод: HL-DT-STDVDRAM GH24NSD1 Adapter: 0 ID: 0
Режим чтения : Достоверность
Использование точного потока : Да
Отключение кэша аудио : Да
Использование указателей C2 : Нет
Коррекция смещения при чтении : 6
Способность читать области Lead-in и Lead-out : Нет
Заполнение пропущенных сэмплов тишиной : Да
Удаление блоков с тишиной в начале и конце : Нет
При вычислениях CRC использовались нулевые сэмплы : Да
Интерфейс : Встроенный Win32-интерфейс для Win NT/2000
Выходной формат : Пользовательский кодировщик
Выбранный битрейт : 1024 kBit/s
Качество : Высокий
Добавление ID3-тега : Нет
Утилита сжатия : C:\Program Files (x86)\FLAC\flac.exe
Дополнительные параметры : -V -8 -T "Date=%year%" -T "Genre=%genre%" %source%
TOC извлечённого CD
Трек | Старт | Длительность | Начальный сектор | Конечный сектор
---------------------------------------------------------------------
1 | 0:00.32 | 3:31.40 | 32 | 15896
2 | 3:31.72 | 3:54.65 | 15897 | 33511
3 | 7:26.62 | 3:13.70 | 33512 | 48056
4 | 10:40.57 | 3:51.13 | 48057 | 65394
5 | 14:31.70 | 4:26.05 | 65395 | 85349
6 | 18:58.00 | 3:25.52 | 85350 | 100776
7 | 22:23.52 | 4:02.30 | 100777 | 118956
8 | 26:26.07 | 3:30.20 | 118957 | 134726
9 | 29:56.27 | 4:03.45 | 134727 | 152996
10 | 33:59.72 | 3:45.10 | 152997 | 169881
11 | 37:45.07 | 3:56.65 | 169882 | 187646
12 | 41:41.72 | 5:53.68 | 187647 | 214189
13 | 47:35.65 | 6:02.40 | 214190 | 241379
14 | 53:38.30 | 5:49.02 | 241380 | 267556
Характеристики диапазона извлечения и сообщения об ошибках
Выбранный диапазон
Имя файла F:\FLAC 1 whirlzzumm\Fancy - D.I.S.C.O..wav
Пиковый уровень 100.0 %
Скорость извлечения 1.6 X
Качество диапазона 100.0 %
CRC теста 8180CF0C
CRC копии 8180CF0C
Копирование... OK
Ошибок не произошло
AccurateRip: сводка
Трек 1 : извлечено точно (доверие 7) [56FAB3FE] (AR v2)
Трек 2 : извлечено точно (доверие 7) [39FD1823] (AR v2)
Трек 3 : извлечено точно (доверие 7) [C3532FE6] (AR v2)
Трек 4 : извлечено точно (доверие 7) [7B178969] (AR v2)
Трек 5 : извлечено точно (доверие 7) [B61485DA] (AR v2)
Трек 6 : извлечено точно (доверие 7) [ECD25C5E] (AR v2)
Трек 7 : извлечено точно (доверие 7) [00ED93F7] (AR v2)
Трек 8 : извлечено точно (доверие 7) [B7B44CCD] (AR v2)
Трек 9 : извлечено точно (доверие 7) [ACF139A6] (AR v2)
Трек 10 : извлечено точно (доверие 7) [AAC0F5D2] (AR v2)
Трек 11 : извлечено точно (доверие 7) [473DAFC6] (AR v2)
Трек 12 : извлечено точно (доверие 7) [6B37DDD4] (AR v2)
Трек 13 : извлечено точно (доверие 7) [AAAD3394] (AR v2)
Трек 14 : извлечено точно (доверие 7) [128C4B96] (AR v2)
Все треки извлечены точно
Конец отчёта
==== Контрольная сумма отчёта 4327DC026295030DB5192F47BDF620FAF3BAF54F2CDB9C1EA4FAEC086F2A70D3 ====

Cue Sheet (.cue):

REM GENRE "Disco, Eurodance"
REM DATE 1999
REM DISCID B70DEF0E
REM COMMENT "ExactAudioCopy v1.0b3"
PERFORMER "Fancy"
TITLE "D.I.S.C.O."
FILE "Fancy - D.I.S.C.O..flac" WAVE
TRACK 01 AUDIO
TITLE "D.I.S.C.O. (Lust For Life)"
PERFORMER "Fancy"
INDEX 00 00:00:00
INDEX 01 00:00:32
TRACK 02 AUDIO
TITLE "How Do You Feel Right Now"
PERFORMER "Fancy"
INDEX 00 03:30:55
INDEX 01 03:31:72
TRACK 03 AUDIO
TITLE "Japanese Girl"
PERFORMER "Fancy"
INDEX 00 07:25:47
INDEX 01 07:26:62
TRACK 04 AUDIO
TITLE "When Clowns Cry"
PERFORMER "Fancy"
INDEX 00 10:39:52
INDEX 01 10:40:57
TRACK 05 AUDIO
TITLE "Try My Love Again"
PERFORMER "Fancy"
INDEX 00 14:30:50
INDEX 01 14:31:70
TRACK 06 AUDIO
TITLE "Cirque De La Lune"
PERFORMER "Fancy"
INDEX 00 18:57:20
INDEX 01 18:58:00
TRACK 07 AUDIO
TITLE "Come Back And Break My Heart"
PERFORMER "Fancy"
INDEX 00 22:23:37
INDEX 01 22:23:52
TRACK 08 AUDIO
TITLE "On Fire"
PERFORMER "Fancy"
INDEX 00 26:24:72
INDEX 01 26:26:07
TRACK 09 AUDIO
TITLE "Everlasting Dance"
PERFORMER "Fancy"
INDEX 00 29:54:60
INDEX 01 29:56:27
TRACK 10 AUDIO
TITLE "When Fancy Cry"
PERFORMER "Fancy"
INDEX 00 33:58:25
INDEX 01 33:59:72
TRACK 11 AUDIO
TITLE "Flames Of Love '99"
PERFORMER "Fancy"
INDEX 00 37:44:02
INDEX 01 37:45:07
TRACK 12 AUDIO
TITLE "Come Back And Break My Heart (Trance Version)"
PERFORMER "Fancy"
INDEX 00 41:40:30
INDEX 01 41:41:72
TRACK 13 AUDIO
TITLE "Disco (Lust For Life) (Extended Version)"
PERFORMER "Fancy"
INDEX 00 47:34:70
INDEX 01 47:35:65
TRACK 14 AUDIO
TITLE "How Do You Feel Right Now (Extended Version)"
PERFORMER "Fancy"
INDEX 00 53:37:35
INDEX 01 53:38:30

Отчёт auCDtect Task manager:

-----------------------
DON'T MODIFY THIS FILE
-----------------------
PERFORMER: auCDtect Task Manager, ver. 1.6.0 RC1 build 1.6.0.1
Copyright (c) 2008-2010 y-soft. All rights reserved
ANALYZER: auCDtect: CD records authenticity detector, version 0.8.2
Copyright (c) 2004 Oleg Berngardt. All rights reserved.
Copyright (c) 2004 Alexander Djourik. All rights reserved.
FILE: Fancy - D.I.S.C.O..flac
Size: 460250519 Hash: FE7EEA913A45AC72E6C98F3DD22721E1 Accuracy: -m0
Conclusion: CDDA 99%
Signature: 263324DB2378A44AE541A667A6B306EF36C2AFEE

[Цитировать]



Показать сообщения:    

Текущее время: 30-Ноя 10:34

Часовой пояс: UTC + 6


Вы не можете начинать темы
Вы не можете отвечать на сообщения
Вы не можете редактировать свои сообщения
Вы не можете удалять свои сообщения
Вы не можете голосовать в опросах
Вы не можете прикреплять файлы к сообщениям
Вы не можете скачивать файлы

!ВНИМАНИЕ!
Сайт не предоставляет электронные версии произведений, а занимается лишь коллекционированием и каталогизацией ссылок, присылаемых и публикуемых на форуме нашими читателями. Если вы являетесь правообладателем какого-либо представленного материала и не желаете, чтобы ссылка на него находилась в нашем каталоге, свяжитесь с нами, и мы незамедлительно удалим ее. Файлы для обмена на трекере предоставлены пользователями сайта, и администрация не несет ответственности за их содержание. Просьба не заливать файлы, защищенные авторскими правами, а также файлы нелегального содержания!