***Уважаемые пользователи и гости !!! Сайт переехал на новый домен Torrents-club.info. Просьба изменить ваши закладки! ***
 
[ Сегодня идет свободное скачивание без начисления Download ]


Статистика раздачи
Нет
 
   
 
 
 
Michael Schenker Group - The Unforgiven (1998) 1999, Unofficial Release - Страна пр. диска: Russia
Жанр: Hard Rock
Издание: Not On Label (Michael Schenker Group) ‎– MSU 4378658432-2
Продолжительность: 00:58:06
Кодек: FLAC
Битрейт: Lossless
Тип рипа: image + .cue+ scans
Источник (релизер): vinni0809
Треклист:
01.Rude Awakening 5:07
02.The Mess I've Made 4:36
03.In and Out of Time 3:49
04.Hello Angel 5:18
05.Fat City N.O. 4:21
06.Tower 5:16
07.Pilot of Your Soul 4:30
08.Forever and More 5:47
09.Turning Off the Emotion 5:19
10.Live for Today 4:45
11.Illusion 4:01
12.The Storm 5:18

Отчёт EAC:

Exact Audio Copy V1.3 from 2. September 2016
EAC extraction logfile from 3. March 2018, 9:05
Michael Schenker Group / The Unforgiven
Used drive : PIONEER DVD-RW DVR-212 Adapter: 3 ID: 0
Read mode : Secure
Utilize accurate stream : Yes
Defeat audio cache : Yes
Make use of C2 pointers : No
Read offset correction : 48
Overread into Lead-In and Lead-Out : No
Fill up missing offset samples with silence : Yes
Delete leading and trailing silent blocks : No
Null samples used in CRC calculations : Yes
Used interface : Installed external ASPI interface
Used output format : User Defined Encoder
Selected bitrate : 128 kBit/s
Quality : High
Add ID3 tag : No
Command line compressor : C:\Program Files (x86)\Exact Audio Copy\FLAC\FLAC.EXE
Additional command line options : -V -8 -T "Date=%year%" -T "Genre=%genre%" -T"COMMENT=Ripped by vinni0809" -8 -V %source%
TOC of the extracted CD
Track | Start | Length | Start sector | End sector
---------------------------------------------------------
1 | 0:00.00 | 5:06.49 | 0 | 22998
2 | 5:06.49 | 4:35.70 | 22999 | 43693
3 | 9:42.44 | 3:49.02 | 43694 | 60870
4 | 13:31.46 | 5:17.66 | 60871 | 84711
5 | 18:49.37 | 4:20.49 | 84712 | 104260
6 | 23:10.11 | 5:15.39 | 104261 | 127924
7 | 28:25.50 | 4:29.64 | 127925 | 148163
8 | 32:55.39 | 5:47.18 | 148164 | 174206
9 | 38:42.57 | 5:19.10 | 174207 | 198141
10 | 44:01.67 | 4:44.60 | 198142 | 219501
11 | 48:46.52 | 4:01.24 | 219502 | 237600
12 | 52:48.01 | 5:18.36 | 237601 | 261486
Range status and errors
Selected range
Filename C:\Users\Виталий.DESKTOP-6S38JA3\Desktop\Michael Schenker Group - The Unforgiven.wav
Peak level 98.8 %
Extraction speed 7.3 X
Range quality 100.0 %
Test CRC 29EFEC0B
Copy CRC 29EFEC0B
Copy OK
No errors occurred
AccurateRip summary
Track 1 not present in database
Track 2 not present in database
Track 3 not present in database
Track 4 not present in database
Track 5 not present in database
Track 6 not present in database
Track 7 not present in database
Track 8 not present in database
Track 9 not present in database
Track 10 not present in database
Track 11 not present in database
Track 12 not present in database
None of the tracks are present in the AccurateRip database
End of status report
---- CUETools DB Plugin V2.1.6
[CTDB TOCID: .MbmoP_tkiOJUp2No5aYlXezhIQ-] found
Submit result: .MbmoP_tkiOJUp2No5aYlXezhIQ- has been confirmed
Track | CTDB Status
1 | (1/1) Accurately ripped
2 | (1/1) Accurately ripped
3 | (1/1) Accurately ripped
4 | (1/1) Accurately ripped
5 | (1/1) Accurately ripped
6 | (1/1) Accurately ripped
7 | (1/1) Accurately ripped
8 | (1/1) Accurately ripped
9 | (1/1) Accurately ripped
10 | (1/1) Accurately ripped
11 | (1/1) Accurately ripped
12 | (1/1) Accurately ripped
==== Log checksum 798AA1C23203CD6D26230E0C9B0F39D7617AD8DE58BB240C48CDBFFCB4297A8E ====

Cue Sheet (.cue):

REM GENRE "Hard Rock"
REM DATE 1999
REM DISCID A00D9E0C
REM COMMENT "ExactAudioCopy v1.3"
PERFORMER "Michael Schenker Group"
TITLE "The Unforgiven"
REM COMPOSER ""
FILE "Michael Schenker Group - The Unforgiven.flac" WAVE
TRACK 01 AUDIO
TITLE "Rude Awakening"
PERFORMER "Michael Schenker Group"
REM COMPOSER ""
INDEX 01 00:00:00
TRACK 02 AUDIO
TITLE "The Mess I've Made"
PERFORMER "Michael Schenker Group"
REM COMPOSER ""
INDEX 00 05:04:50
INDEX 01 05:06:49
TRACK 03 AUDIO
TITLE "In and Out of Time"
PERFORMER "Michael Schenker Group"
REM COMPOSER ""
INDEX 00 09:40:44
INDEX 01 09:42:44
TRACK 04 AUDIO
TITLE "Hello Angel"
PERFORMER "Michael Schenker Group"
REM COMPOSER ""
INDEX 00 13:29:46
INDEX 01 13:31:46
TRACK 05 AUDIO
TITLE "Fat City N.O."
PERFORMER "Michael Schenker Group"
REM COMPOSER ""
INDEX 00 18:47:38
INDEX 01 18:49:37
TRACK 06 AUDIO
TITLE "Tower"
PERFORMER "Michael Schenker Group"
REM COMPOSER ""
INDEX 00 23:08:11
INDEX 01 23:10:11
TRACK 07 AUDIO
TITLE "Pilot of Your Soul"
PERFORMER "Michael Schenker Group"
REM COMPOSER ""
INDEX 00 28:23:51
INDEX 01 28:25:50
TRACK 08 AUDIO
TITLE "Forever and More"
PERFORMER "Michael Schenker Group"
REM COMPOSER ""
INDEX 00 32:53:40
INDEX 01 32:55:39
TRACK 09 AUDIO
TITLE "Turning Off the Emotion"
PERFORMER "Michael Schenker Group"
REM COMPOSER ""
INDEX 00 38:40:58
INDEX 01 38:42:57
TRACK 10 AUDIO
TITLE "Live for Today"
PERFORMER "Michael Schenker Group"
REM COMPOSER ""
INDEX 00 43:59:67
INDEX 01 44:01:67
TRACK 11 AUDIO
TITLE "Illusion"
PERFORMER "Michael Schenker Group"
REM COMPOSER ""
INDEX 00 48:44:52
INDEX 01 48:46:52
TRACK 12 AUDIO
TITLE "The Storm"
PERFORMER "Michael Schenker Group"
REM COMPOSER ""
INDEX 00 52:46:01
INDEX 01 52:48:01

Отчёт auCDtect Task manager:

-----------------------
DON'T MODIFY THIS FILE
-----------------------
PERFORMER: auCDtect Task Manager, ver. 1.6.0 RC1 build 1.6.0.1
Copyright (c) 2008-2010 y-soft. All rights reserved
ANALYZER: auCDtect: CD records authenticity detector, version 0.8.2
Copyright (c) 2004 Oleg Berngardt. All rights reserved.
Copyright (c) 2004 Alexander Djourik. All rights reserved.
FILE: Michael Schenker Group - The Unforgiven.flac
Size: 408914971 Hash: 2CAF9A5FD7F80CCDE14BE95A2DE07F22 Accuracy: -m0
Conclusion: CDDA 100%
Signature: 37DC4B4F4EFF5A61D09099DAC929BA0BE46A2099

[Цитировать]



Показать сообщения:    

Текущее время: 30-Ноя 08:47

Часовой пояс: UTC + 6


Вы не можете начинать темы
Вы не можете отвечать на сообщения
Вы не можете редактировать свои сообщения
Вы не можете удалять свои сообщения
Вы не можете голосовать в опросах
Вы не можете прикреплять файлы к сообщениям
Вы не можете скачивать файлы

!ВНИМАНИЕ!
Сайт не предоставляет электронные версии произведений, а занимается лишь коллекционированием и каталогизацией ссылок, присылаемых и публикуемых на форуме нашими читателями. Если вы являетесь правообладателем какого-либо представленного материала и не желаете, чтобы ссылка на него находилась в нашем каталоге, свяжитесь с нами, и мы незамедлительно удалим ее. Файлы для обмена на трекере предоставлены пользователями сайта, и администрация не несет ответственности за их содержание. Просьба не заливать файлы, защищенные авторскими правами, а также файлы нелегального содержания!