***Уважаемые пользователи и гости !!! Сайт переехал на новый домен Torrents-club.info. Просьба изменить ваши закладки! ***
 
[ Сегодня идет свободное скачивание без начисления Download ]


Статистика раздачи
Нет
 
   
 
 
 
Чужая кровь [1-20 серии из 20] (2018) HDTVRip Год выпуска: 2018
Жанр: Мелодрама
Выпущено: Россия, Профит
Режиссер: Ольга Субботина
В ролях: Карина Андоленко, Павел Баршак, Дарья Мороз, Виктор Добронравов, Артём Ткаченко, Лаура Кеосаян, Анна Здор, Людмила Чурсина, Екатерина Кузнецова (II), Роман Полянский, Александра Бортич, Антон Соколов (II), Анна Капалева, Маргарита Толстоганова, Андрей Фомин (II), Николай Козак, Илья Ильин, Виктор Тереля, Никита Тезин, Сергей Мухин, Дмитрий Орлов (III), Антон Непомнящий, Ия Нинидзе, Тамара Череповская, Михаил Жигалов, Стас Шмелев, Святослав Осипов, Григорий Данцигер, Зураб Миминошвили, Наталия Моргунова (II), Марина Кондратьева (II), Александр Андриенко, Владимир Скворцов
О фильме: Драматическая семейная сага, разворачивающаяся на протяжении нескольких десятилетий. В основе сюжета - история благополучной семьи Горбатовых: партийного работника Бориса и его жены - русской красавицы Зины. Однако за респектабельным фасадом бушуют сокрушительные страсти. Ревность, измены, отчуждение, разводы вторгаются в отношения близких людей на протяжении сорока лет. И только настоящая любовь сможет разрушить родовое проклятие и сделать чужих детей родными....
Файл:
Качество: WEB-DLRip
Видео: XviD, ~ 1600 Кбит/с, 720x400
Аудио: Русский (AC3, 2 ch, 192 Кбит/с)
Продолжительность: 20 х ~ 00:45:00
Перевод: Не требуется
Субтитры: нет
Доп. ин.-ция

Внимание! Раздача ведётся путём добавления новых серий

Раздача ведётся путём добавления новых серий, при каждом добавлении создаётся новый торрент. Чтобы начать докачку новой серии, пользователям необходимо сделать следующее:
- Остановить скачивание.
- Удалить старый торрент у себя из клиента (старые серии удалять не надо).
- Скачать новый торрент и запустить его у себя в клиенте вместо старого, при этом указать клиенту путь в старую папку куда и должно происходить скачивание новых серий.
Ваш клиент при этом должен произвести хеширование (проверку) старой папки (если не производит сам - помогите ему сделать это), и будет докачивать только те серии которых у вас ещё нет. Старые серии при этом не удаляются, а продолжают раздаваться!

MediaInfo:

General
Complete name : C:\00\Chuzhaja krov. (2018) .WEB-DLRip. Files-x\02. Chuzhaja krov.2018.WEB-DLRip.Files-x.avi
Format : AVI
Format/Info : Audio Video Interleave
File size : 589 MiB
Duration : 45mn 41s
Overall bit rate : 1 802 Kbps
Writing application : VirtualDubMod 1.5.10.3 | www.virtualdub-fr.org || (build 2550/release)
Writing library : VirtualDubMod build 2550/release
Video
ID : 0
Format : MPEG-4 Visual
Format profile : Advanced Simple@L5
Format settings, BVOP : 1
Format settings, QPel : No
Format settings, GMC : No warppoints
Format settings, Matrix : Custom
Codec ID : XVID
Codec ID/Hint : XviD
Duration : 45mn 41s
Bit rate : 1 600 Kbps
Width : 720 pixels
Height : 400 pixels
Display aspect ratio : 16:9
Frame rate : 25.000 fps
Color space : YUV
Chroma subsampling : 4:2:0
Bit depth : 8 bits
Scan type : Progressive
Compression mode : Lossy
Bits/(Pixel*Frame) : 0.222
Stream size : 523 MiB (89%)
Writing library : XviD 73
Audio
ID : 1
Format : AC-3
Format/Info : Audio Coding 3
Mode extension : CM (complete main)
Codec ID : 2000
Duration : 45mn 41s
Bit rate mode : Constant
Bit rate : 192 Kbps
Channel(s) : 2 channels
Channel positions : Front: L R
Sampling rate : 48.0 KHz
Bit depth : 16 bits
Compression mode : Lossy
Stream size : 62.8 MiB (11%)
Alignment : Split accross interleaves
Interleave, duration : 40 ms (1.00 video frame)
Interleave, preload duration : 500 ms

Скриншоты

Добавлены 1-20 серии.
Сериал залит полностью.


Последний раз редактировалось: papa1951deda (2018-12-29 12:40), всего редактировалось 8 раз(а)

[Цитировать]

Добавлены 19-20 серии.

[Цитировать]



Показать сообщения:    

Текущее время: 30-Ноя 10:05

Часовой пояс: UTC + 6


Вы не можете начинать темы
Вы не можете отвечать на сообщения
Вы не можете редактировать свои сообщения
Вы не можете удалять свои сообщения
Вы не можете голосовать в опросах
Вы не можете прикреплять файлы к сообщениям
Вы не можете скачивать файлы

!ВНИМАНИЕ!
Сайт не предоставляет электронные версии произведений, а занимается лишь коллекционированием и каталогизацией ссылок, присылаемых и публикуемых на форуме нашими читателями. Если вы являетесь правообладателем какого-либо представленного материала и не желаете, чтобы ссылка на него находилась в нашем каталоге, свяжитесь с нами, и мы незамедлительно удалим ее. Файлы для обмена на трекере предоставлены пользователями сайта, и администрация не несет ответственности за их содержание. Просьба не заливать файлы, защищенные авторскими правами, а также файлы нелегального содержания!