***Уважаемые пользователи и гости !!! Сайт переехал на новый домен Torrents-club.info. Просьба изменить ваши закладки! ***
 
[ Сегодня идет свободное скачивание без начисления Download ]


Статистика раздачи
Нет
 
   
 
 
 
Колдуньи [1-12 серии из 12] (2018) WEBRip Год выпуска: 2018
Жанр: Мистика, мелодрама, приключения
Выпущено: Украина, ООО "Новый канал"
Режиссер: Андерс Банке, Николай Михайлов
В ролях: Слава Красовская, Екатерина Гулякова, Ольга Цицилинская, Алина Коваленко, Артур Логай, Александр Кобзарь, Евгения Гладий
О фильме: Существование магии будоражит сознание людей на протяжении долгого времени. Большинство мечтает обладать мистическими способностями. Люди полагают, что подобный дар избавит их от бесконечных трудностей, позволит распоряжаться своей жизнь самостоятельно и без труда избавляться от неприятностей. Кажется, быть ведьмой мечта любой женщины. Трудно представить, что незавидная участь несет за собой множество последствий. Героиням предстоит узнать это на собственном опыте. История обычных девушек Ники, Марго, Сони и Дины, жизнь которых вращается вокруг карьеры, творчества, учебы и любви. Они сталкивались с трудностями, пытались решить их и не задумывались о магии. В их представлении мистические истории были плодом чужой фантазии. Не хватало времени думать о таких глупостях. Но однажды они случайно открывают доступ к Источнику Силы и получают магические способности. Теперь девушкам придется не только привыкать к своему новому статусу колдуний, но и бороться с мощной и опасной ведьмой…
Файл:
Качество: WEBRip
Видео: XviD, ~ 1708 Кбит/с, 720x400, 25 кадр/с
Аудио: AC3, 2 ch, 192 Кбит/с
Продолжительность: 12 x ~ 00:43:48
Перевод: Не требуется
Cубтитры: нет
Доп. ин.-ция

Внимание! Раздача ведётся путём добавления новых серий

Раздача ведётся путём добавления новых серий, при каждом добавлении создаётся новый торрент. Чтобы начать докачку новой серии, пользователям необходимо сделать следующее:
- Остановить скачивание.
- Удалить старый торрент у себя из клиента (старые серии удалять не надо).
- Скачать новый торрент и запустить его у себя в клиенте вместо старого, при этом указать клиенту путь в старую папку куда и должно происходить скачивание новых серий.
Ваш клиент при этом должен произвести хеширование (проверку) старой папки (если не производит сам - помогите ему сделать это), и будет докачивать только те серии которых у вас ещё нет. Старые серии при этом не удаляются, а продолжают раздаваться!

MediaInfo:

General
Complete name : C:\Users\DOM\Desktop\ВИДЕО\Колдуньи.(2018).WEBRip.by.Nicodem.Files-x\01.Колдуньи.(2018).WEBRip.by.Nicodem.Files-x.avi
Format : AVI
Format/Info : Audio Video Interleave
File size : 598 MiB
Duration : 43mn 48s
Overall bit rate : 1 910 Kbps
Writing application : VirtualDubMod 1.5.10.3 | www.virtualdub-fr.org || (build 2550/release)
Writing library : VirtualDubMod build 2550/release
Video
ID : 0
Format : MPEG-4 Visual
Format profile : Advanced Simple@L5
Format settings, BVOP : 1
Format settings, QPel : No
Format settings, GMC : No warppoints
Format settings, Matrix : Custom
Codec ID : XVID
Codec ID/Hint : XviD
Duration : 43mn 48s
Bit rate : 1 708 Kbps
Width : 720 pixels
Height : 400 pixels
Display aspect ratio : 16:9
Frame rate : 25.000 fps
Color space : YUV
Chroma subsampling : 4:2:0
Bit depth : 8 bits
Scan type : Progressive
Compression mode : Lossy
Bits/(Pixel*Frame) : 0.237
Stream size : 535 MiB (89%)
Writing library : XviD 73
Audio
ID : 1
Format : AC-3
Format/Info : Audio Coding 3
Mode extension : CM (complete main)
Codec ID : 2000
Duration : 43mn 48s
Bit rate mode : Constant
Bit rate : 192 Kbps
Channel(s) : 2 channels
Channel positions : Front: L R
Sampling rate : 48.0 KHz
Bit depth : 16 bits
Compression mode : Lossy
Stream size : 60.2 MiB (10%)
Alignment : Split accross interleaves
Interleave, duration : 40 ms (1.00 video frame)
Interleave, preload duration : 500 ms

Скриншоты

1-12 серии.
Сериал залит полностью.


Последний раз редактировалось: papa1951deda (2018-12-29 17:30), всего редактировалось 7 раз(а)

[Цитировать]

Добавлена 12 серия

[Цитировать]

Еслиб не хохлы сняли обязательно посмотрел бы.

[Цитировать]

193226Еслиб не хохлы сняли обязательно посмотрел бы.
Ну и зря! Хотя.... на вкус и........

[Цитировать]



Показать сообщения:    

Текущее время: 30-Ноя 08:57

Часовой пояс: UTC + 6


Вы не можете начинать темы
Вы не можете отвечать на сообщения
Вы не можете редактировать свои сообщения
Вы не можете удалять свои сообщения
Вы не можете голосовать в опросах
Вы не можете прикреплять файлы к сообщениям
Вы не можете скачивать файлы

!ВНИМАНИЕ!
Сайт не предоставляет электронные версии произведений, а занимается лишь коллекционированием и каталогизацией ссылок, присылаемых и публикуемых на форуме нашими читателями. Если вы являетесь правообладателем какого-либо представленного материала и не желаете, чтобы ссылка на него находилась в нашем каталоге, свяжитесь с нами, и мы незамедлительно удалим ее. Файлы для обмена на трекере предоставлены пользователями сайта, и администрация не несет ответственности за их содержание. Просьба не заливать файлы, защищенные авторскими правами, а также файлы нелегального содержания!