***Уважаемые пользователи и гости !!! Сайт переехал на новый домен Torrents-club.info. Просьба изменить ваши закладки! ***
 
[ Сегодня идет свободное скачивание без начисления Download ]


Статистика раздачи
Нет
 
   
 
 
 
Тайны следствия (18 сезон: 1-24 серии из 24) (2018) WEB-DLRip Информация о фильме
Оригинальное название: Тайны следствия 18
Год выпуска: 2018
Выпущено: Россия
Студия: ООО "Кинопроизводственный центр" , ООО "Прогресс-Студия"
Жанр: Детектив, драма, криминал
Режиссер: Егор Баринов, Жанна Коханова
В ролях: Анна Ковальчук, Вячеслав Захаров, Игорь Николаев, Александр Новиков, Антон Ксенев, Давид Бродский, Андрей Шарков, Степан Пивкин, Татьяна Левина, Анастасия Ступина, Светлана Щедрина, Злата Ильченко, Варвара Александрова, Владимир Постников, Владимир Колганов, Андрей Булатов, Александр Андреев, Александр Конев
О фильме: Следователю Марии Сергеевне Швецовой предстоит разобраться в новых запутанных преступлениях. Тем временем у остальных героев в жизни большие перемены. Оля наконец забеременела от Курочкина, будущий папаша разрывается между домом и работой. Кораблев вышел на след свидетеля, который может доказать вину Шипова. Сам же Шипов остался без жены. Она не вынесла присутствия в его жизни любовницы и, забрав дочь, вернулась на родину. Так что теперь Шипов строит новую семью с Настей и ее маленьким сыном. Строит он и загородный дом, как обычно, не гнушаясь никакими методами "зарабатывания" денег. Кораблев всеми силами старается вывести Шипова на чистую воду и в надежде заполучить своего человека в стане врага сближается с Беловой. А Марию Сергеевну судьба сводит с успешным хирургом Максимом Солнцевым..
Файл
Качество: WEB-DLRip
Видео: XviD, ~ 1600 Кбит/с, 720x400
Аудио: AC3, 2 ch, 192 Кбит/с
Продолжительность: 24 х 00:52:00
Перевод: Не требуется
Доп. ин.-ция

Внимание! Раздача ведётся путём добавления новых серий

Раздача ведётся путём добавления новых серий, при каждом добавлении создаётся новый торрент. Чтобы начать докачку новой серии, пользователям необходимо сделать следующее:
- Остановить скачивание.
- Удалить старый торрент у себя из клиента (старые серии удалять не надо).
- Скачать новый торрент и запустить его у себя в клиенте вместо старого, при этом указать клиенту путь в старую папку куда и должно происходить скачивание новых серий.
Ваш клиент при этом должен произвести хеширование (проверку) старой папки (если не производит сам - помогите ему сделать это), и будет докачивать только те серии которых у вас ещё нет. Старые серии при этом не удаляются, а продолжают раздаваться!

Скриншоты

MediaInfo:

General
Complete name : C:\00\6354\Тайны следствия. 18 сезон. 2018. WEB-DLRip .Files-x\02.Тайны следствия. 18 сезон.2018.WEB-DLRip..Files-.avi
Format : AVI
Format/Info : Audio Video Interleave
File size : 671 MiB
Duration : 52mn 6s
Overall bit rate : 1 802 Kbps
Writing application : VirtualDubMod 1.5.10.3 | www.virtualdub-fr.org || (build 2550/release)
Writing library : VirtualDubMod build 2550/release
Video
ID : 0
Format : MPEG-4 Visual
Format profile : Advanced Simple@L5
Format settings, BVOP : 1
Format settings, QPel : No
Format settings, GMC : No warppoints
Format settings, Matrix : Custom
Codec ID : XVID
Codec ID/Hint : XviD
Duration : 52mn 6s
Bit rate : 1 600 Kbps
Width : 720 pixels
Height : 400 pixels
Display aspect ratio : 16:9
Frame rate : 25.000 fps
Color space : YUV
Chroma subsampling : 4:2:0
Bit depth : 8 bits
Scan type : Progressive
Compression mode : Lossy
Bits/(Pixel*Frame) : 0.222
Stream size : 596 MiB (89%)
Writing library : XviD 73
Audio
ID : 1
Format : AC-3
Format/Info : Audio Coding 3
Mode extension : CM (complete main)
Codec ID : 2000
Duration : 52mn 6s
Bit rate mode : Constant
Bit rate : 192 Kbps
Channel(s) : 2 channels
Channel positions : Front: L R
Sampling rate : 48.0 KHz
Bit depth : 16 bits
Compression mode : Lossy
Stream size : 71.6 MiB (11%)
Alignment : Split accross interleaves
Interleave, duration : 40 ms (1.00 video frame)
Interleave, preload duration : 500 ms
Добавлены 1-24 серии.
18 сезон сериала залит полностью


Последний раз редактировалось: papa1951deda (2018-12-31 16:57), всего редактировалось 5 раз(а)

[Цитировать]

Добавлены 19-24 серии.

[Цитировать]



Показать сообщения:    

Текущее время: 30-Ноя 20:48

Часовой пояс: UTC + 6


Вы не можете начинать темы
Вы не можете отвечать на сообщения
Вы не можете редактировать свои сообщения
Вы не можете удалять свои сообщения
Вы не можете голосовать в опросах
Вы не можете прикреплять файлы к сообщениям
Вы не можете скачивать файлы

!ВНИМАНИЕ!
Сайт не предоставляет электронные версии произведений, а занимается лишь коллекционированием и каталогизацией ссылок, присылаемых и публикуемых на форуме нашими читателями. Если вы являетесь правообладателем какого-либо представленного материала и не желаете, чтобы ссылка на него находилась в нашем каталоге, свяжитесь с нами, и мы незамедлительно удалим ее. Файлы для обмена на трекере предоставлены пользователями сайта, и администрация не несет ответственности за их содержание. Просьба не заливать файлы, защищенные авторскими правами, а также файлы нелегального содержания!