***Уважаемые пользователи и гости !!! Сайт переехал на новый домен Torrents-club.info. Просьба изменить ваши закладки! ***
 
[ Сегодня идет свободное скачивание без начисления Download ]


Статистика раздачи
Нет
 
   
 
 
 
Electric Light Orchestra - A New World Record (1976) Remastered, 2006, 30th Anniversary Edition - Жанр: Classic Rock, Symphonic Rock
Издание: Epic ‎– 69699854222, Legacy ‎– 69699854222, Sony BMG Music Entertainment ‎– 69699854222
Продолжительность: 00:59:12
Источник (релизер): GLoby
Кодек: FLAC
Битрейт: Lossless
Тип рипа: image + .cue
Discogs: Тык
Треклист:
01. Tightrope (5:06)
02. Telephone Line (4:40)
03. Rockaria! (3:13)
04. Mission (A World Record) (4:26)
05. So Fine (3:55)
06. Livin' Thing (3:32)
07. Above the Clouds (2:17)
08. Do Ya (3:45)
09. Shangri-La (5:40)

Bonus Tracks:

10. Telephone Line (different vocal) (4:41)
11. Surrender (2:37)
12. Tightrope (instrumental early rough mix) (4:56)
13. Above the Clouds (instrumental rough mix) (1:15)
14. So Fine (instrumental early rough mix) (4:16)
15. Telephone Line (instrumental) (4:51)

Отчёт EAC:

Exact Audio Copy V1.3 from 2. September 2016
EAC extraction logfile from 17. December 2018, 20:48
Electric Light Orchestra / A New World Record
Used drive : Optiarc DVD RW AD-7700S Adapter: 1 ID: 0
Read mode : Secure
Utilize accurate stream : Yes
Defeat audio cache : Yes
Make use of C2 pointers : No
Read offset correction : 48
Overread into Lead-In and Lead-Out : No
Fill up missing offset samples with silence : Yes
Delete leading and trailing silent blocks : No
Null samples used in CRC calculations : Yes
Used interface : Native Win32 interface for Win NT & 2000
Used output format : User Defined Encoder
Selected bitrate : 768 kBit/s
Quality : High
Add ID3 tag : No
Command line compressor : D:\Programs\Exact Audio Copy\Flac\flac.exe
Additional command line options : -8 -V -T "TITLE=%title%" -T "ARTIST=%artist%" -T "ALBUMARTIST=%albumartist%" -T "ALBUM=%albumtitle%" -T "DATE=%year%" -T "TRACKNUMBER=%tracknr%" -T "TRACKTOTAL=%numtracks%" -T "GENRE=%genre%" -T "COMMENT=%comment%" -T "PERFORMER=%albuminterpret%" -T "COMPOSER=%composer%" %source% -o %dest%
TOC of the extracted CD
Track | Start | Length | Start sector | End sector
---------------------------------------------------------
1 | 0:00.00 | 5:06.06 | 0 | 22955
2 | 5:06.06 | 4:40.27 | 22956 | 43982
3 | 9:46.33 | 3:12.63 | 43983 | 58445
4 | 12:59.21 | 4:25.56 | 58446 | 78376
5 | 17:25.02 | 3:55.34 | 78377 | 96035
6 | 21:20.36 | 3:32.23 | 96036 | 111958
7 | 24:52.59 | 2:17.07 | 111959 | 122240
8 | 27:09.66 | 3:45.08 | 122241 | 139123
9 | 30:54.74 | 5:40.09 | 139124 | 164632
10 | 36:35.08 | 4:41.34 | 164633 | 185741
11 | 41:16.42 | 2:37.36 | 185742 | 197552
12 | 43:54.03 | 4:55.40 | 197553 | 219717
13 | 48:49.43 | 1:14.57 | 219718 | 225324
14 | 50:04.25 | 4:16.28 | 225325 | 244552
15 | 54:20.53 | 4:51.30 | 244553 | 266407
Range status and errors
Selected range
Filename D:\Releases\GLoby\Electric Light Orchestra - A New World Record (1976) [Remastered, 30th Anniversary Edition]\Electric Light Orchestra - A New World Record.wav
Peak level 100.0 %
Extraction speed 4.7 X
Range quality 99.9 %
Test CRC 945C59C9
Copy CRC 945C59C9
Copy OK
No errors occurred
AccurateRip summary
Track 1 accurately ripped (confidence 67) [0CE674ED] (AR v2)
Track 2 accurately ripped (confidence 67) [B9BD38FA] (AR v2)
Track 3 accurately ripped (confidence 67) [48CE058D] (AR v2)
Track 4 accurately ripped (confidence 67) [DF4E716C] (AR v2)
Track 5 accurately ripped (confidence 67) [930FB01A] (AR v2)
Track 6 accurately ripped (confidence 67) [B135D46D] (AR v2)
Track 7 accurately ripped (confidence 67) [A1D485A7] (AR v2)
Track 8 accurately ripped (confidence 67) [AF021EB0] (AR v2)
Track 9 accurately ripped (confidence 67) [E721494C] (AR v2)
Track 10 accurately ripped (confidence 64) [7E2EDBB7] (AR v2)
Track 11 accurately ripped (confidence 65) [E5D87FEE] (AR v2)
Track 12 accurately ripped (confidence 64) [FF2E33F2] (AR v2)
Track 13 accurately ripped (confidence 64) [3F4B7CCE] (AR v2)
Track 14 accurately ripped (confidence 64) [F6706ECC] (AR v2)
Track 15 accurately ripped (confidence 64) [4D1B0BC5] (AR v2)
All tracks accurately ripped
End of status report
---- CUETools DB Plugin V2.1.6
[CTDB TOCID: dd0Jdv7awj6ZFhik9pScO7gdE28-] found
Submit result: already submitted
Track | CTDB Status
1 | (881/885) Accurately ripped
2 | (881/885) Accurately ripped
3 | (881/885) Accurately ripped
4 | (881/885) Accurately ripped
5 | (881/885) Accurately ripped
6 | (881/885) Accurately ripped
7 | (881/885) Accurately ripped
8 | (880/885) Accurately ripped
9 | (879/885) Accurately ripped
10 | (880/885) Accurately ripped
11 | (880/885) Accurately ripped
12 | (881/885) Accurately ripped
13 | (881/885) Accurately ripped
14 | (879/885) Accurately ripped
15 | (876/885) Accurately ripped
==== Log checksum 5A7EEDA024D7F707265316A59E93B3D7EFCDBC20DC3784E445D5DD57D60EECF8 ====

Cue Sheet (.cue):

REM GENRE "Classic Rock"
REM DATE 1976
REM DISCID DA0DE00F
REM COMMENT "ExactAudioCopy v1.3"
PERFORMER "Electric Light Orchestra"
TITLE "A New World Record"
REM COMPOSER ""
FILE "Electric Light Orchestra - A New World Record.flac" WAVE
TRACK 01 AUDIO
TITLE "Tightrope"
PERFORMER "Electric Light Orchestra"
REM COMPOSER ""
ISRC USSM17800849
INDEX 01 00:00:00
TRACK 02 AUDIO
TITLE "Telephone Line"
PERFORMER "Electric Light Orchestra"
REM COMPOSER ""
ISRC USSM18600411
INDEX 01 05:06:06
TRACK 03 AUDIO
TITLE "Rockaria!"
PERFORMER "Electric Light Orchestra"
REM COMPOSER ""
ISRC USSM17800850
INDEX 01 09:46:33
TRACK 04 AUDIO
TITLE "Mission (A World Record)"
PERFORMER "Electric Light Orchestra"
REM COMPOSER ""
ISRC USSM17800851
INDEX 01 12:59:21
TRACK 05 AUDIO
TITLE "So Fine"
PERFORMER "Electric Light Orchestra"
REM COMPOSER ""
ISRC USSM17800852
INDEX 01 17:25:02
TRACK 06 AUDIO
TITLE "Livin' Thing"
PERFORMER "Electric Light Orchestra"
REM COMPOSER ""
ISRC USSM17800853
INDEX 01 21:20:36
TRACK 07 AUDIO
TITLE "Above the Clouds"
PERFORMER "Electric Light Orchestra"
REM COMPOSER ""
ISRC USSM17800854
INDEX 01 24:52:59
TRACK 08 AUDIO
TITLE "Do Ya"
PERFORMER "Electric Light Orchestra"
REM COMPOSER ""
ISRC USSM17800855
INDEX 01 27:09:66
TRACK 09 AUDIO
TITLE "Shangri-La"
PERFORMER "Electric Light Orchestra"
REM COMPOSER ""
ISRC USSM17800856
INDEX 01 30:54:74
TRACK 10 AUDIO
TITLE "Telephone Line (different vocal)"
PERFORMER "Electric Light Orchestra"
REM COMPOSER ""
ISRC USSM10601002
INDEX 00 36:30:26
INDEX 01 36:35:08
TRACK 11 AUDIO
TITLE "Surrender"
PERFORMER "Electric Light Orchestra"
REM COMPOSER ""
ISRC USSM10601003
INDEX 00 41:14:59
INDEX 01 41:16:42
TRACK 12 AUDIO
TITLE "Tightrope (instrumental early rough mix)"
PERFORMER "Electric Light Orchestra"
REM COMPOSER ""
ISRC USSM10601175
INDEX 00 43:51:00
INDEX 01 43:54:03
TRACK 13 AUDIO
TITLE "Above the Clouds (instrumental rough mix)"
PERFORMER "Electric Light Orchestra"
REM COMPOSER ""
ISRC USSM10601005
INDEX 00 48:46:62
INDEX 01 48:49:43
TRACK 14 AUDIO
TITLE "So Fine (instrumental early rough mix)"
PERFORMER "Electric Light Orchestra"
REM COMPOSER ""
ISRC USSM10601006
INDEX 00 50:01:44
INDEX 01 50:04:25
TRACK 15 AUDIO
TITLE "Telephone Line (instrumental)"
PERFORMER "Electric Light Orchestra"
REM COMPOSER ""
ISRC USSM10601007
INDEX 00 54:17:71
INDEX 01 54:20:53

Отчёт auCDtect Task manager:

-----------------------
DON'T MODIFY THIS FILE
-----------------------
PERFORMER: auCDtect Task Manager, ver. 1.6.0 RC1 build 1.6.0.1
Copyright (c) 2008-2010 y-soft. All rights reserved
ANALYZER: auCDtect: CD records authenticity detector, version 0.8.2
Copyright (c) 2004 Oleg Berngardt. All rights reserved.
Copyright (c) 2004 Alexander Djourik. All rights reserved.
FILE: Electric Light Orchestra - A New World Record.flac
Size: 390419378 Hash: 99071B61E81E53BC1AF8100C7553CE36 Accuracy: -m0
Conclusion: CDDA 100%
Signature: 32B31448C127AB728EF518777B44C41E8299DC29

[Цитировать]



Показать сообщения:    

Текущее время: 30-Ноя 18:52

Часовой пояс: UTC + 6


Вы не можете начинать темы
Вы не можете отвечать на сообщения
Вы не можете редактировать свои сообщения
Вы не можете удалять свои сообщения
Вы не можете голосовать в опросах
Вы не можете прикреплять файлы к сообщениям
Вы не можете скачивать файлы

!ВНИМАНИЕ!
Сайт не предоставляет электронные версии произведений, а занимается лишь коллекционированием и каталогизацией ссылок, присылаемых и публикуемых на форуме нашими читателями. Если вы являетесь правообладателем какого-либо представленного материала и не желаете, чтобы ссылка на него находилась в нашем каталоге, свяжитесь с нами, и мы незамедлительно удалим ее. Файлы для обмена на трекере предоставлены пользователями сайта, и администрация не несет ответственности за их содержание. Просьба не заливать файлы, защищенные авторскими правами, а также файлы нелегального содержания!