***Уважаемые пользователи и гости !!! Сайт переехал на новый домен Torrents-club.info. Просьба изменить ваши закладки! ***
 
[ Сегодня идет свободное скачивание без начисления Download ]


Статистика раздачи
Нет
 
   
 
 
 
Аладдин / Aladdin Год выпуска: 2019
Производство: США / Walt Disney Pictures
Жанр: Мюзикл, фэнтези, мелодрама, приключения, семейный
Режиссер: Гай Ричи
Продюсеры: Дэн Лин, Кевин Де Ла Ной, Джонатан Эйрих
Актеры: Мена Массуд, Наоми Скотт, Уилл Смит, Билли Магнуссен, Назим Педрад, Марван Кензари, Нуман Аджар, Навид Негабан, Камиль Лемешевский, Nikkita Chadha
Описание:
Молодой воришка по имени Аладдин хочет стать принцем, чтобы жениться на принцессе Жасмин. Тем временем визирь Аграбы Джафар, намеревается захватить власть над Аграбой, а для этого он стремится заполучить волшебную лампу, хранящуюся в пещере чудес, доступ к которой разрешен лишь тому, кого называют «алмаз неограненный», и этим человеком является никто иной как сам Аладдин.
Перевод: Дублированный
Субтитры: Нет-Дата мировой премьеры: 22 мая 2019
Дата российской премьеры: 23 мая 2019, «WDSSPR»
-Продолжительность: 00:01:34
Качество видео: HDRip 1080p-Видео: H264, 1920x800 (2,40:1), 25,0 Мбит/сек
Аудио 1: MP3 2.0, 128 Кбит/сек [Русский - дублированный]
Аудио 2: PCM 5.1, 6912 Кбит/сек [Английский - оригинал]

MediaInfo:

Общее
Уникальный идентификатор : 87394891348963418182997668896069070792 (0x41BFA4D19EA8DC001A847E327EFF2FC8)
Полное имя : V:TorrentsAladdin (2019) HDRip [1080p] Teaser.mkv
Формат : Matroska
Версия формата : Version 4 / Version 2
Размер файла : 359 Мбайт
Продолжительность : 1 м. 34 с.
Общий поток : 32,0 Мбит/сек
Дата кодирования : UTC 2018-12-21 20:48:04
Программа кодирования : mkvmerge v29.0.0 ('Like It Or Not') 64-bit
Библиотека кодирования : libebml v1.3.6 + libmatroska v1.4.9
Видео
Идентификатор : 1
Формат : AVC
Формат/Информация : Advanced Video Codec
Профиль формата : High@L4.1
Настройки формата : CABAC / 4 Ref Frames
Параметр CABAC формата : Да
Параметр RefFrames формата : 4 кадра
Идентификатор кодека : V_MPEG4/ISO/AVC
Продолжительность : 1 м. 34 с.
Битрейт : 25,0 Мбит/сек
Ширина : 1920 пикселей
Высота : 800 пикселей
Соотношение сторон : 2,40:1
Режим частоты кадров : Постоянный
Частота кадров : 23,976 (24000/1001) кадра/сек
Цветовое пространство : YUV
Субдискретизация насыщенности : 4:2:0
Битовая глубина : 8 бит
Тип развёртки : Прогрессивная
Бит/(Пиксели*Кадры) : 0.679
Размер потока : 280 Мбайт (78%)
Default : Да
Forced : Нет
Цветовой диапазон : Limited
Основные цвета : BT.709
Характеристики трансфера : BT.709
Коэффициенты матрицы : BT.709
Аудио #1
Идентификатор : 2
Формат : MPEG Audio
Версия формата : Version 1
Профиль формата : Layer 3
Настройки формата : Joint stereo
Режим : Joint stereo
Идентификатор кодека : A_MPEG/L3
Идентификатор кодека/Подсказка : MP3
Продолжительность : 1 м. 34 с.
Вид битрейта : Постоянный
Битрейт : 128 Кбит/сек
Каналы : 2 канала
Частота : 48,0 КГц
Частота кадров : 41,667 кадра/сек (1152 SPF)
Метод сжатия : С потерями
Размер потока : 1,44 Мбайт (0%)
Заголовок : Dub
Язык : Russian
Default : Да
Forced : Нет
Аудио #2
Идентификатор : 3
Формат : PCM
Идентификатор кодека : A_PCM/INT/LIT
Продолжительность : 1 м. 34 с.
Вид битрейта : Постоянный
Битрейт : 6912 Кбит/сек
Каналы : 6 каналов
Частота : 48,0 КГц
Частота кадров : 32,009 кадра/сек (1500 SPF)
Битовая глубина : 24 бит
Задержка видео : 27 мс.
Размер потока : 77,6 Мбайт (22%)
Язык : English
Default : Нет
Forced : Нет

Скриншоты:

[Цитировать]

Из сказки будет клёвый блокбастер

[Цитировать]



Показать сообщения:    

Текущее время: 30-Ноя 11:03

Часовой пояс: UTC + 6


Вы не можете начинать темы
Вы не можете отвечать на сообщения
Вы не можете редактировать свои сообщения
Вы не можете удалять свои сообщения
Вы не можете голосовать в опросах
Вы не можете прикреплять файлы к сообщениям
Вы не можете скачивать файлы

!ВНИМАНИЕ!
Сайт не предоставляет электронные версии произведений, а занимается лишь коллекционированием и каталогизацией ссылок, присылаемых и публикуемых на форуме нашими читателями. Если вы являетесь правообладателем какого-либо представленного материала и не желаете, чтобы ссылка на него находилась в нашем каталоге, свяжитесь с нами, и мы незамедлительно удалим ее. Файлы для обмена на трекере предоставлены пользователями сайта, и администрация не несет ответственности за их содержание. Просьба не заливать файлы, защищенные авторскими правами, а также файлы нелегального содержания!