***Уважаемые пользователи и гости !!! Сайт переехал на новый домен Torrents-club.info. Просьба изменить ваши закладки! ***
 
[ Сегодня идет свободное скачивание без начисления Download ]


Статистика раздачи
Нет
 
   
 
 
 
Хеллбой / Hellboy Год выпуска: 2019
Производство: США / Summit Entertainment, Lionsgate, Millennium Films
Жанр: Фантастика, фэнтези, боевик, приключения
Режиссер: Нил Маршалл
Продюсеры: Лоуренс Гордон, Карл Хампе, Ллойд Левин
Актеры: Дэвид Харбор, Иэн МакШейн, Милла Йовович, Саша Лэйн, Томас Хейден Чёрч, Пенелопа Митчелл, Дэниэл Дэ Ким, Софи Оконедо, Брин Глисон, Кристина Клебе
Описание:
Хеллбой отправляется в Англию на встречу с женой Мерлина — Кровавой королевой. От исхода этой битвы зависит судьба всего мира.
Перевод: Дублированный
Субтитры: Нет-Дата мировой премьеры: 10 января 2019
Дата российской премьеры: 11 апреля 2019, «MEGOGO Distribution»
-Продолжительность: 00:02:14
Качество видео: HDRip 1080p-Видео: H264, 1920x1080 (16:9), 47,5 Мбит/сек
Аудио 1: MP3 2.0, 128 Кбит/сек [Русский - дублированный]
Аудио 2: PCM 5.1, 9216 Кбит/сек [Английский - оригинал]

MediaInfo:

Общее
Уникальный идентификатор : 214267959458835144998519282660599332062 (0xA1328207563E8E330422DFDED7E2FCDE)
Полное имя : V:TorrentsHellboy (2019) HDRip [1080p] Trailer.mkv
Формат : Matroska
Версия формата : Version 4 / Version 2
Размер файла : 909 Мбайт
Продолжительность : 2 м. 14 с.
Общий поток : 56,8 Мбит/сек
Дата кодирования : UTC 2018-12-21 20:07:50
Программа кодирования : mkvmerge v29.0.0 ('Like It Or Not') 64-bit
Библиотека кодирования : libebml v1.3.6 + libmatroska v1.4.9
Видео
Идентификатор : 1
Формат : AVC
Формат/Информация : Advanced Video Codec
Профиль формата : Main@L4.1
Настройки формата : CABAC / 4 Ref Frames
Параметр CABAC формата : Да
Параметр RefFrames формата : 4 кадра
Идентификатор кодека : V_MPEG4/ISO/AVC
Продолжительность : 2 м. 14 с.
Битрейт : 47,5 Мбит/сек
Номинальный битрейт : 50,0 Мбит/сек
Ширина : 1920 пикселей
Высота : 1080 пикселей
Соотношение сторон : 16:9
Режим частоты кадров : Постоянный
Частота кадров : 23,976 (24000/1001) кадра/сек
Цветовое пространство : YUV
Субдискретизация насыщенности : 4:2:0
Битовая глубина : 8 бит
Тип развёртки : Прогрессивная
Бит/(Пиксели*Кадры) : 0.955
Размер потока : 760 Мбайт (84%)
Заголовок : Hellboy
Библиотека кодирования : x264 core 155 r2901 7d0ff22
Настройки программы : cabac=1 / ref=2 / deblock=1:0:0 / analyse=0x1:0x111 / me=hex / subme=6 / psy=1 / psy_rd=1.00:0.00 / mixed_ref=1 / me_range=16 / chroma_me=1 / trellis=1 / 8x8dct=0 / cqm=0 / deadzone=21,11 / fast_pskip=1 / chroma_qp_offset=-2 / threads=12 / lookahead_threads=2 / sliced_threads=0 / nr=0 / decimate=1 / interlaced=0 / bluray_compat=0 / constrained_intra=0 / bframes=3 / b_pyramid=2 / b_adapt=1 / b_bias=0 / direct=1 / weightb=1 / open_gop=0 / weightp=1 / keyint=240 / keyint_min=24 / scenecut=40 / intra_refresh=0 / rc_lookahead=30 / rc=cbr / mbtree=1 / bitrate=50000 / ratetol=1.0 / qcomp=0.60 / qpmin=0 / qpmax=69 / qpstep=4 / vbv_maxrate=50000 / vbv_bufsize=62500 / nal_hrd=none / filler=0 / ip_ratio=1.40 / aq=1:1.00
Язык : English
Default : Да
Forced : Нет
Цветовой диапазон : Limited
Основные цвета : BT.709
Характеристики трансфера : BT.709
Коэффициенты матрицы : BT.709
Аудио #1
Идентификатор : 2
Формат : MPEG Audio
Версия формата : Version 1
Профиль формата : Layer 3
Настройки формата : Joint stereo / MS Stereo
Режим : Joint stereo
Расширение режима : MS Stereo
Идентификатор кодека : A_MPEG/L3
Идентификатор кодека/Подсказка : MP3
Продолжительность : 2 м. 14 с.
Вид битрейта : Постоянный
Битрейт : 128 Кбит/сек
Каналы : 2 канала
Частота : 48,0 КГц
Частота кадров : 41,667 кадра/сек (1152 SPF)
Метод сжатия : С потерями
Размер потока : 2,05 Мбайт (0%)
Заголовок : Dub
Язык : Russian
Default : Да
Forced : Нет
Аудио #2
Идентификатор : 3
Формат : PCM
Идентификатор кодека : A_PCM/INT/LIT
Продолжительность : 2 м. 14 с.
Вид битрейта : Постоянный
Битрейт : 9216 Кбит/сек
Каналы : 6 каналов
Частота : 48,0 КГц
Частота кадров : 32,000 кадра/сек (1500 SPF)
Битовая глубина : 32 бит
Размер потока : 147 Мбайт (16%)
Язык : English
Default : Нет
Forced : Нет

Скриншоты:

[Цитировать]



Показать сообщения:    

Текущее время: 30-Ноя 11:02

Часовой пояс: UTC + 6


Вы не можете начинать темы
Вы не можете отвечать на сообщения
Вы не можете редактировать свои сообщения
Вы не можете удалять свои сообщения
Вы не можете голосовать в опросах
Вы не можете прикреплять файлы к сообщениям
Вы не можете скачивать файлы

!ВНИМАНИЕ!
Сайт не предоставляет электронные версии произведений, а занимается лишь коллекционированием и каталогизацией ссылок, присылаемых и публикуемых на форуме нашими читателями. Если вы являетесь правообладателем какого-либо представленного материала и не желаете, чтобы ссылка на него находилась в нашем каталоге, свяжитесь с нами, и мы незамедлительно удалим ее. Файлы для обмена на трекере предоставлены пользователями сайта, и администрация не несет ответственности за их содержание. Просьба не заливать файлы, защищенные авторскими правами, а также файлы нелегального содержания!