***Уважаемые пользователи и гости !!! Сайт переехал на новый домен Torrents-club.info. Просьба изменить ваши закладки! ***
 
[ Сегодня идет свободное скачивание без начисления Download ]


Статистика раздачи
Нет
 
   
 
 
 
15 лучших фантастических короткометражек
Top 15 fantastic shorts
(2008-2016)
- Информация
Год выхода: 2008-2016
Название: 15 лучших фантастических короткометражек
Оригинальное название: Top 15 fantastic shorts
Жанр: короткометражка, ужасы, фантастика, триллер, мультфильм, боевик, драма, фэнтези, комедия, криминал, детектив, приключения
Режиссер: Дэвид Ф. Сандберг, Дэвид Карлак, Пол Уэннингер, Дэн Трахтенберг, Джеймс Гриффитс, Аарон Симс, Крис Томас, Рори Робинсон, Дэвид Вайнштейн, Филип Сэнсом, Олли Уильямс, Джефф Чан, Франсуа Ферраччи, Люк МакКубри, Питер МакКубри, Джон Башиам, Джес Бикхарт, Роб МакЛеллан
В ролях: Лотта Лостен, Дэвид Ф. СандбергРуфус Сьюэлл, Антон Ельчин, Керри Бише, Пол Уэннингер, Даниэль Рэйн, Алекс АльбрехтТом Каллен, Майкл Гулд, Дэвид Андерс, Роберт Джой, Энни Уолкер, Макс Рекордс, Дженни Фонтана и др.
О фильме:
15 лучших фантастических короткометражек 2008-2016 г.г.

Страна: США, Франция, Австрия, Великобритания, Польша, Ирландия, Канада
Продолжительность: 01:30:08
Перевод: Любительский (одноголосый), Любительский (двухголосый), Любительский (многоголосый), субтитры (Русские)
Файл
Качество: WEBRip-AVC
Формат: MKV
Видео: MPEG-4 AVC/H.264, 2600 Кбит/сек, 1024x576
Звук: AC3, 2 ch, 192 Кбит/сек
Субтитры: Комната 8 / Room 8 (2013) - Русские (на Английскую речь) [вшитые неотключаемые],
Эйб / Abe (2013) – Русские [вшитые неотключаемые]

Список фильмов

01. В чулане / Closet Space (2016):
Пара переезжает в новую квартиру, где со шкафом происходит что-то странное. (00:03:00)
02. Рост / Восстание / Rise (2016):
В ближайшем будущем разумные роботы были приговорены к ликвидации после того, как у них стало развиваться человеческое эмоциональное поведение. (00:05:00)
03. Зловещая долина / Uncanny Valley (2015):
Страдания и ужасы войны в памяти поколений. (00:13:00)
04. Портал: Некуда бежать / Portal: No Escape (2011):
Женщина просыпается в запертой комнате без памяти, кто она и как она туда попала. (00:07:00)
05. Комната 8 / Room 8 (2013):
События происходят где-то на территории Советского Союза. Некий заключенный попадает в камеру, где уже находится один человек. Увидев красную коробку, новоприбывший интересуется её содержимым… (00:07:00)
Субтитры: русские (на английскую речь)
06. Архетип / Archetype (2011):
Действие фильма разворачивается в недалёком будущем, где в центре сюжета восьмифутовый робот RL7, у которого просыпаются странные воспоминания, касательно его прошлого. И, естественно, корпорации, которой это не выгодно, приходится начать полноценную охоту за RL7. (00:07:00)
07. Круги / Cropped (2015):
Молодежная компания решает отправиться на экскурсию, маршрут которой проходит через таинственное поле, испещренное странными кругами. Чтобы разгадать происхождение непонятных знаков, ребята просят гида сделать остановку. Экскурсовод в глубине души посмеивается над доверчивыми пассажирами. Но внезапно автобус ломается, и вся группа остается на ночлег вблизи этого зловещего места… (00:06:00)
08. Плохой робот / BlinkyTM (2011):
События фильма происходят в недалеком будущем, где телевизорами во всю стену и роботами уже никого не удивишь. Родители мальчика по имени Алекс постоянно ссорятся. Семья стала рушиться прямо на его глазах, и нет никого рядом, кто бы мог поддержать его в трудную минуту. И вот мальчику дарят друга — робота по имени Блинки. Поначалу Алекс очень радуется такому интересному подарку, но со временем он начинает понимать, что Блинки не решит всех его проблем и что его семья так и будет дальше разваливаться. Тогда он начинает вымещать всю злобу на роботе, даже не подозревая, на что способно такое, казалось бы, беззащитное создание. (00:13:00)
09. Посланник / Envoy (2014):
Мальчик случайно встречает представителя внеземной цивилизации — гигантского боевого робота, за которым охотятся спецподразделения военных. (00:09:00)
10. Черная дыра / The Black Hole (2008):
Притча о жадности и алчности обычного офисного клерка, в руки которого попадает листок с волшебной черной дырой. (00:03:00)
11. Код 8 / Code 8 (2016):
Четыре процента населения Линкольн Сити обладают сверхспособностями. Эти Особые люди живут за гранью бедности и пытаются ухватиться за любую работу, чтобы прокормить семью и не остаться на улице. Но далеко не все из них готовы работать за гроши. Некоторые прибегают к криминальным методам зарабатывания денег с помощью своей уникальности. Главный герой еле-еле сводит концы с концами, зарабатывая честным путём, но ущемление прав Особых заставляет его пересмотреть свои взгляды. (00:10:00)
12. Потерянные воспоминания / Lost Memories (2012):
Красивая пара, город, перенасыщенный голограммами и цифровым потоком. Поляроидная камера. Завтра никогда не будет прежним. (00:03:00)
13. Следовательно, существую / Therefore I Am (2015):
Таинственная встреча человека, который утверждает, что он из будущего, с человеком, который является им в прошлом. Действие происходит в сеттинге путешествий во времени по теории параллельных миров. (00:07:00)
14. Темпус / Tempus (2016)
15. Эйб / Abe (2013):
История про дефективного робота и его эмоции. (00:08:00)
Перевод: отсутствует (субтитры)
Субтитры: Русские

MediaInfo:


Общее
Уникальный идентификатор : 135928062022707990156804604183934153607 (0x6642CAE0D5B18885642F5DD60AE03387)
Полное имя : F:\Top 15 fantastic shorts (2008-2016) WEBRip-AVC .mkv
Формат : Matroska
Версия формата : Version 4
Размер файла : 1,75 Гбайт
Продолжительность : 1 ч. 30 м.
Общий поток : 2775 Кбит/сек
Программа кодирования : XviD4PSP 7.0.461 DAILY
Библиотека кодирования : Lavf57.71.100
Авторское право : [#ZsU®]
ErrorDetectionType : Per level 1
ENCODING_INFO : MATROSKA,WEBM > MKV Пользовательский / VP9 > X264 ABR 2600kbps HQ / VORBIS > AC3 CBR 192kbps
Видео
Идентификатор : 1
Формат : AVC
Формат/Информация : Advanced Video Codec
Профиль формата : High@L4.1
Настройки формата : CABAC / 11 Ref Frames
Параметр CABAC формата : Да
Параметр RefFrames формата : 11 кадров
Идентификатор кодека : V_MPEG4/ISO/AVC
Продолжительность : 1 ч. 30 м.
Битрейт : 2600 Кбит/сек
Ширина : 1024 пикселя
Высота : 576 пикселей
Соотношение сторон : 16:9
Режим частоты кадров : Постоянный
Частота кадров : 23,976 (24000/1001) кадра/сек
Цветовое пространство : YUV
Субдискретизация насыщенности : 4:2:0
Битовая глубина : 8 бит
Тип развёртки : Прогрессивная
Бит/(Пиксели*Кадры) : 0.184
Размер потока : 1,59 Гбайт (91%)
Библиотека кодирования : x264 core 157 r2935M 545de2f
Настройки программы : cabac=1 / ref=12 / deblock=1:-3:-3 / analyse=0x3:0x133 / me=umh / subme=11 / psy=1 / psy_rd=1.00:0.20 / mixed_ref=1 / me_range=32 / chroma_me=1 / trellis=2 / 8x8dct=1 / cqm=0 / deadzone=21,11 / fast_pskip=1 / chroma_qp_offset=-3 / threads=13 / lookahead_threads=1 / sliced_threads=0 / nr=0 / decimate=1 / interlaced=0 / bluray_compat=0 / constrained_intra=0 / bframes=12 / b_pyramid=1 / b_adapt=1 / b_bias=10 / direct=1 / weightb=1 / open_gop=0 / weightp=1 / keyint=240 / keyint_min=24 / scenecut=40 / intra_refresh=0 / rc_lookahead=40 / rc=abr / mbtree=1 / bitrate=2600 / ratetol=1.0 / qcomp=0.60 / qpmin=0 / qpmax=69 / qpstep=4 / ip_ratio=1.40 / aq=1:1.00
Default : Да
Forced : Нет
Цветовой диапазон : Limited
Основные цвета : BT.709
Характеристики трансфера : BT.709
Коэффициенты матрицы : BT.709
Аудио
Идентификатор : 2
Формат : AC-3
Формат/Информация : Audio Coding 3
Коммерческое название : Dolby Digital
Идентификатор кодека : A_AC3
Продолжительность : 1 ч. 30 м.
Вид битрейта : Постоянный
Битрейт : 192 Кбит/сек
Каналы : 2 канала
Channel layout : L R
Частота : 44,1 КГц
Частота кадров : 28,711 кадров/сек (1536 SPF)
Битовая глубина : 16 бит
Метод сжатия : С потерями
Размер потока : 124 Мбайт (7%)
Заголовок : VO, DVO, MVO
Default : Да
Forced : Нет

Скриншоты




[Цитировать]



Показать сообщения:    

Текущее время: 01-Дек 18:51

Часовой пояс: UTC + 6


Вы не можете начинать темы
Вы не можете отвечать на сообщения
Вы не можете редактировать свои сообщения
Вы не можете удалять свои сообщения
Вы не можете голосовать в опросах
Вы не можете прикреплять файлы к сообщениям
Вы не можете скачивать файлы

!ВНИМАНИЕ!
Сайт не предоставляет электронные версии произведений, а занимается лишь коллекционированием и каталогизацией ссылок, присылаемых и публикуемых на форуме нашими читателями. Если вы являетесь правообладателем какого-либо представленного материала и не желаете, чтобы ссылка на него находилась в нашем каталоге, свяжитесь с нами, и мы незамедлительно удалим ее. Файлы для обмена на трекере предоставлены пользователями сайта, и администрация не несет ответственности за их содержание. Просьба не заливать файлы, защищенные авторскими правами, а также файлы нелегального содержания!