***Уважаемые пользователи и гости !!! Сайт переехал на новый домен Torrents-club.info. Просьба изменить ваши закладки! ***
 
[ Сегодня идет свободное скачивание без начисления Download ]


Статистика раздачи
Нет
 
   
 
 
 
Смертельный тренинг [1-4 серии из 4] (2018) WEB-DLRip Год выпуска: 2018
Жанр: Детектив, Мелодрама
Выпущено: Россия, Энерджи Фильм Продакшен
Режиссер: Наталия Микрюкова
В ролях: Екатерина Копанова, Станислав Бондаренко, Григорий Зельцер, Илья Бледный, Александр Борисов, Катрин Асси, Анна Бударина, Константин Шелягин, Майя Вознесенская, Кира Кауфман, Юрий Ковалёв, Андрей Фролов, Дуклас Трухин, Юлия Довганишина, Константин Соколов, Сергей Холмогоров, Сергей Литвинов, Лора Резникова, Виталий Абдулов, Жанна Пугачёва
О фильме: Надя и Дима живут вместе, вот только ей кажется, что она почти замужем, а ему — что он почти свободен. В очередной раз возмутившись таким положением дел, Надя принимает неожиданное предложение поехать на модный психологический тренинг взамен заболевшей сотрудницы. Тренинг проходит в роскошном загородном отеле и неожиданно увлекает её: харизматичный ведущий Игорь Маруев превращает каждый сеанс в шоу, нечто среднее между исповедью и судом. Участники тренинга в восторге... но далее начинает происходить что-то зловещее и необъяснимое. Участники погибают при загадочных обстоятельствах. Первая смерть кажется несчастным случаем, вторая — жутким совпадением. Вскоре Наде становится понятно: кто-то намерен убить всех участников шоу Маруева.
Файл:
Качество: WEB-DLRip
Видео: XviD, ~ 1600 Кбит/с, 720x400, 25 кадр/с
Аудио: AC3, 2 ch, 192 Кбит/с
Продолжительность: 4 x ~ 00:48:00
Перевод: Не требуется
Субтитры: нет
Доп. ин.-ция

Внимание! Раздача ведётся путём добавления новых серий

Раздача ведётся путём добавления новых серий, при каждом добавлении создаётся новый торрент. Чтобы начать докачку новой серии, пользователям необходимо сделать следующее:
- Остановить скачивание.
- Удалить старый торрент у себя из клиента (старые серии удалять не надо).
- Скачать новый торрент и запустить его у себя в клиенте вместо старого, при этом указать клиенту путь в старую папку куда и должно происходить скачивание новых серий.
Ваш клиент при этом должен произвести хеширование (проверку) старой папки (если не производит сам - помогите ему сделать это), и будет докачивать только те серии которых у вас ещё нет. Старые серии при этом не удаляются, а продолжают раздаваться!

MediaInfo:

General
Complete name : D:\моё видио\Смертельный тренинг. 2018. WEB-DLRip. Files-x\01. Смертельный тренинг. 2018. WEB-DLRip. Files-x.avi
Format : AVI
Format/Info : Audio Video Interleave
File size : 575 MiB
Duration : 44mn 35s
Overall bit rate : 1 802 Kbps
Writing application : VirtualDubMod 1.5.10.3 | www.virtualdub-fr.org || (build 2550/release)
Writing library : VirtualDubMod build 2550/release
Video
ID : 0
Format : MPEG-4 Visual
Format profile : Advanced Simple@L5
Format settings, BVOP : 1
Format settings, QPel : No
Format settings, GMC : No warppoints
Format settings, Matrix : Custom
Codec ID : XVID
Codec ID/Hint : XviD
Duration : 44mn 35s
Bit rate : 1 600 Kbps
Width : 720 pixels
Height : 400 pixels
Display aspect ratio : 16:9
Frame rate : 25.000 fps
Color space : YUV
Chroma subsampling : 4:2:0
Bit depth : 8 bits
Scan type : Progressive
Compression mode : Lossy
Bits/(Pixel*Frame) : 0.222
Stream size : 510 MiB (89%)
Writing library : XviD 73
Audio
ID : 1
Format : AC-3
Format/Info : Audio Coding 3
Mode extension : CM (complete main)
Format settings, Endianness : Big
Codec ID : 2000
Duration : 44mn 35s
Bit rate mode : Constant
Bit rate : 192 Kbps
Channel(s) : 2 channels
Channel positions : Front: L R
Sampling rate : 48.0 KHz
Bit depth : 16 bits
Compression mode : Lossy
Stream size : 61.2 MiB (11%)
Alignment : Split accross interleaves
Interleave, duration : 40 ms (1.00 video frame)
Interleave, preload duration : 500 ms

Скриншоты

Добавлены 1-4 серии.
Фильм залит полностью.

[Цитировать]



Показать сообщения:    

Текущее время: 30-Ноя 11:06

Часовой пояс: UTC + 6


Вы не можете начинать темы
Вы не можете отвечать на сообщения
Вы не можете редактировать свои сообщения
Вы не можете удалять свои сообщения
Вы не можете голосовать в опросах
Вы не можете прикреплять файлы к сообщениям
Вы не можете скачивать файлы

!ВНИМАНИЕ!
Сайт не предоставляет электронные версии произведений, а занимается лишь коллекционированием и каталогизацией ссылок, присылаемых и публикуемых на форуме нашими читателями. Если вы являетесь правообладателем какого-либо представленного материала и не желаете, чтобы ссылка на него находилась в нашем каталоге, свяжитесь с нами, и мы незамедлительно удалим ее. Файлы для обмена на трекере предоставлены пользователями сайта, и администрация не несет ответственности за их содержание. Просьба не заливать файлы, защищенные авторскими правами, а также файлы нелегального содержания!