***Уважаемые пользователи и гости !!! Сайт переехал на новый домен Torrents-club.info. Просьба изменить ваши закладки! ***
 
[ Сегодня идет свободное скачивание без начисления Download ]


Статистика раздачи
Нет
 
   
 
 
 
Легенда о боевых тортиллах / Teenage Mutant Ninja Turtles Информация о фильме
Название: Легенда о Боевых Тортиллах
Оригинальное название: Teenage Mutant Ninja Turtles
Год выхода: 2014 / 2017
Жанр: пародия, комедия, юмористический перевод
Режиссер: Джонатан Либесман
В ролях: Меган Фокс, Уилл Арнетт, Уильям Фихтнер, Алан Ричсон, Ноэль Фишер, Пит Пложек, Джонни Ноксвилл, Джереми Ховард, Дэнни Вудберн, Тони Шэлоуб
О фильме:
Смешной перевод фильма "Черепашки-ниндзя".
Вы, должно быть, слышали городские легенды про аллигаторов и черепах в канализации, или про огромных крыс, что могут запросто съесть целого человека. Но не стоит к ним ко всем относиться, как к сказочкам, многие из них правдивы. Полумифическая криминальная организация Клан Грязные Ноги наводит ужас на весь Нью-Йорк. Власти наотрез отказываются признавать ее существование и не предпринимают никаких действий, списывая все ее преступления на отдельные группировки бандитов. Возглавляет Клан некий Шредингер, чья личность окутана тайной еще похлеще, ибо все, кто его видел, уже мертвы и ничего не расскажут, либо завербованы им же. Но нашлись смельчаки, бросившие вызов Клану. Они называли себя Боевыми Тортиллами.
Семпл
Страна: США
Продолжительность: 01:41:17
Перевод: Любительский одноголосый (смешной перевод студии Дух Сухаря)
Файл
Качество: BDRip 1080p
Формат: MKV
Видео: 1920x800 (2.40:1), 23.976 fps, x.264@L4.1, ~9682 kbps avg
Аудио: 48 kHz, AC3 , 2 ch, ~320.00 kbps avg

MI

General
Complete name : D:ZagrLegenda.o.boyevih.tortillah.2014.1080p.mkv
Format : Matroska
Format version : Version 4
File size : 7.07 GiB
Duration : 1 h 41 min
Overall bit rate : 9 997 kb/s
Encoded date : UTC 2018-12-30 00:50:46
Writing application : mkvmerge v25.0.0 ('Prog Noir') 64-bit
Writing library : libebml v1.3.6 + libmatroska v1.4.9
Video
ID : 1
Format : AVC
Format/Info : Advanced Video Codec
Format profile : High@L4.1
Format settings : CABAC / 5 Ref Frames
Format settings, CABAC : Yes
Format settings, RefFrames : 5 frames
Codec ID : V_MPEG4/ISO/AVC
Duration : 1 h 41 min
Bit rate : 9 682 kb/s
Width : 1 920 pixels
Height : 800 pixels
Display aspect ratio : 2.40:1
Frame rate mode : Constant
Frame rate : 23.976 (24000/1001) FPS
Color space : YUV
Chroma subsampling : 4:2:0
Bit depth : 8 bits
Scan type : Progressive
Bits/(Pixel*Frame) : 0.263
Stream size : 6.85 GiB (97%)
Writing library : x264 core 142 r2491 24e4fed
Encoding settings : cabac=1 / ref=5 / deblock=1:-3:-3 / analyse=0x3:0x113 / me=umh / subme=11 / psy=1 / psy_rd=1.00:0.05 / mixed_ref=1 / me_range=48 / chroma_me=1 / trellis=2 / 8x8dct=1 / cqm=0 / deadzone=21,11 / fast_pskip=0 / chroma_qp_offset=-3 / threads=12 / lookahead_threads=1 / sliced_threads=0 / nr=0 / decimate=0 / interlaced=0 / bluray_compat=0 / constrained_intra=0 / bframes=5 / b_pyramid=2 / b_adapt=2 / b_bias=0 / direct=3 / weightb=1 / open_gop=0 / weightp=2 / keyint=240 / keyint_min=23 / scenecut=40 / intra_refresh=0 / rc_lookahead=60 / rc=2pass / mbtree=0 / bitrate=9682 / ratetol=1.0 / qcomp=0.60 / qpmin=0 / qpmax=69 / qpstep=4 / cplxblur=20.0 / qblur=0.5 / vbv_maxrate=62500 / vbv_bufsize=78125 / nal_hrd=none / filler=0 / ip_ratio=1.40 / pb_ratio=1.30 / aq=2:1.00
Language : English
Default : No
Forced : No
Audio
ID : 2
Format : AC-3
Format/Info : Audio Coding 3
Commercial name : Dolby Digital
Codec ID : A_AC3
Duration : 1 h 41 min
Bit rate mode : Constant
Bit rate : 320 kb/s
Channel(s) : 2 channels
Channel layout : L R
Sampling rate : 48.0 kHz
Frame rate : 31.250 FPS (1536 SPF)
Bit depth : 16 bits
Compression mode : Lossy
Stream size : 232 MiB (3%)
Service kind : Complete Main
Default : Yes
Forced : No

Скриншоты

[Цитировать]



Показать сообщения:    

Текущее время: 30-Ноя 20:07

Часовой пояс: UTC + 6


Вы не можете начинать темы
Вы не можете отвечать на сообщения
Вы не можете редактировать свои сообщения
Вы не можете удалять свои сообщения
Вы не можете голосовать в опросах
Вы не можете прикреплять файлы к сообщениям
Вы не можете скачивать файлы

!ВНИМАНИЕ!
Сайт не предоставляет электронные версии произведений, а занимается лишь коллекционированием и каталогизацией ссылок, присылаемых и публикуемых на форуме нашими читателями. Если вы являетесь правообладателем какого-либо представленного материала и не желаете, чтобы ссылка на него находилась в нашем каталоге, свяжитесь с нами, и мы незамедлительно удалим ее. Файлы для обмена на трекере предоставлены пользователями сайта, и администрация не несет ответственности за их содержание. Просьба не заливать файлы, защищенные авторскими правами, а также файлы нелегального содержания!