***Уважаемые пользователи и гости !!! Сайт переехал на новый домен Torrents-club.info. Просьба изменить ваши закладки! ***
 
[ Сегодня идет свободное скачивание без начисления Download ]


Статистика раздачи
Скачал: [ 1 ]
 
   
 
 
 
 
Убийства по алфавиту / The ABC Murders
Год выпуска: 2018
Производство: Великобритания
Жанр: детектив
Продолжительность: ~01:00:00
Субтитры: русские (форсированые)
Режиссёр: Алекс Габасси
В ролях: Джон Малкович, Имон Фэррен, Майкл Шэйффер, Руперт Гринт, Conrad McCroddan, Фрейя Мавор, Ширли Хендерсон, Аня Чалотра, Эндрю Бакан, Тара Фитцджеральд и др.
Описание: "Убийства по алфавиту" - экранизация одного из самых знаменитых романов Агаты Кристи, созданная телеканалом BBC One. Это не первый подобный проект британцев: в 2015 году они перенесли на малые экраны легендарное произведение Королевы детектива "Десять негритят". Мини-сериал "И никого не стало" получил высокую оценку критиков и покорил миллионы зрителей. К работе над "Убийствами по алфавиту" привлекли номинированную на премию BAFTA сценаристку Сару Фелпс, которая работала над проектом "И никого не стало" и уже считается экспертом по творчеству Кристи, и режиссера Алекса Габасси, успевшего зарекомендовать себя в детективном жанре ("Хроники Франкенштейна"). Трехсерийный мини-сериал "Убийства по алфавиту" может похвастаться отменным актерским составом. Двукратный номинант на премию "Оскар" Джон Малкович украсил классический образ Эркюля Пуаро собственным прочтением и выгодно выделил его среди работ Альфреда Молины, Дэвида Суше и Питера Устинова. Звезда "Гарри Поттера" Руперт Гринт присоединился к Малковичу на стороне сил правопорядка в роли инспектора Крама. Также в проекте приняли участие Тара Фитцджеральд ("Игра престолов"), Эндрю Бакан ("Все деньги мира"), Ширли Хендерсон, известность которой также принесли фильмы о Гарри Поттере, Джек Фартинг ("Демоны да Винчи") и другие талантливые актеры.
Качество: WEBDL 1080p - AMAZON
Формат: MKV
Видео: 1920x960 (2.000) at 25.000, x264@L4.0 ~ 3615 kbps avg, 0.187 bit/pixel
Аудио #1: 48 kHz/16-bit, AC3, 3/2 (L,C,R,l,r) + LFE ch, ~ 640.00 kbps avg | Russian MVO «LostFilm»
Аудио #2: 48 kHz/16-bit, E-AC3, 3/2 (L,C,R,l,r) + LFE ch, ~ 640.00 kbps avg | English «Original»

MediaInfo:

General
Unique ID : 42344219250046562667522710920258036873 (0x1FDB33320E3538CB498490EA1CFEA489)
Complete name : D:\Video\The.ABC.Murders.2018.S01.1080p.AMZN.WEB-DL.H.264.RUS.LF.DDP5.1\The.ABC.Murders.S01E01.Episode.1.1080p.AMZN.WEB-DL.H.264.RUS.LF.DDP5.1.mkv
Format : Matroska
Format version : Version 4
File size : 1.91 GiB
Duration : 55 min 54 s
Overall bit rate : 4 897 kb/s
Movie name : The ABC Murders, Season 1 / Episode 1
Track name/Position : 1
Track name/Total : 3
Description : It's 1933 and a killer travels the length and breadth of Britain via the railway network. The killer uses the alias ABC, and strikes in a methodical pattern, leaving a copy of the ABC railway guide at the scene of each of murder. As Poirot attempts to investigate he is thwarted on every front. If he is to match his most cunning nemesis, everything about him will be called into question: his authority, his integrity, his identity.
Released date : UTC 2018-12-26 21:00:00
Writing application : mkvmerge v30.1.0 ('Forever And More') 64-bit
Writing library : libebml v1.3.6 + libmatroska v1.4.9
Cover : Yes
Attachments : small_cover.jpg / cover.jpg
Video
ID : 1
Format : AVC
Format/Info : Advanced Video Codec
Format profile : High@L4
Format settings : CABAC / 4 Ref Frames
Format settings, CABAC : Yes
Format settings, ReFrames : 4 frames
Codec ID : V_MPEG4/ISO/AVC
Duration : 55 min 54 s
Bit rate : 3 615 kb/s
Width : 1 920 pixels
Height : 960 pixels
Display aspect ratio : 2.000
Frame rate mode : Constant
Frame rate : 25.000 FPS
Color space : YUV
Chroma subsampling : 4:2:0
Bit depth : 8 bits
Scan type : Progressive
Bits/(Pixel*Frame) : 0.078
Stream size : 1.41 GiB (74%)
Language : English
Default : Yes
Forced : No
Color range : Limited
Color primaries : BT.709
Transfer characteristics : BT.709
Matrix coefficients : BT.709
Audio #1
ID : 2
Format : E-AC-3
Format/Info : Enhanced AC-3
Commercial name : Dolby Digital Plus
Codec ID : A_EAC3
Duration : 55 min 54 s
Bit rate mode : Constant
Bit rate : 640 kb/s
Channel(s) : 6 channels
Channel layout : L R C LFE Ls Rs
Sampling rate : 48.0 kHz
Frame rate : 31.250 FPS (1536 SPF)
Compression mode : Lossy
Stream size : 256 MiB (13%)
Title : E-AC3 5.1 @ 640 kbps - MVO, Lostfilm
Language : Russian
Service kind : Complete Main
Default : Yes
Forced : No
Released date : UTC 2019-01-06 20:52:30
Audio #2
ID : 3
Format : E-AC-3
Format/Info : Enhanced AC-3
Commercial name : Dolby Digital Plus
Codec ID : A_EAC3
Duration : 55 min 54 s
Bit rate mode : Constant
Bit rate : 640 kb/s
Channel(s) : 6 channels
Channel layout : L R C LFE Ls Rs
Sampling rate : 48.0 kHz
Frame rate : 31.250 FPS (1536 SPF)
Compression mode : Lossy
Stream size : 256 MiB (13%)
Title : E-AC3 5.1 @ 640 kbps - Original
Language : English
Service kind : Complete Main
Default : No
Forced : No
Text
ID : 4
Format : UTF-8
Codec ID : S_TEXT/UTF8
Codec ID/Info : UTF-8 Plain Text
Duration : 44 min 8 s
Bit rate : 7 b/s
Count of elements : 47
Stream size : 2.28 KiB (0%)
Title : Forced
Language : Russian
Default : Yes
Forced : Yes

Скриншоты



Последний раз редактировалось: SAA2019 (2019-02-01 17:31), всего редактировалось 1 раз

[Цитировать]

Обновил на раздачу с форсироваными субтитрами

[Цитировать]



Показать сообщения:    

Текущее время: 13-Апр 19:47

Часовой пояс: UTC + 6


Вы не можете начинать темы
Вы не можете отвечать на сообщения
Вы не можете редактировать свои сообщения
Вы не можете удалять свои сообщения
Вы не можете голосовать в опросах
Вы не можете прикреплять файлы к сообщениям
Вы не можете скачивать файлы

!ВНИМАНИЕ!
Сайт не предоставляет электронные версии произведений, а занимается лишь коллекционированием и каталогизацией ссылок, присылаемых и публикуемых на форуме нашими читателями. Если вы являетесь правообладателем какого-либо представленного материала и не желаете, чтобы ссылка на него находилась в нашем каталоге, свяжитесь с нами, и мы незамедлительно удалим ее. Файлы для обмена на трекере предоставлены пользователями сайта, и администрация не несет ответственности за их содержание. Просьба не заливать файлы, защищенные авторскими правами, а также файлы нелегального содержания!