***Уважаемые пользователи и гости !!! Сайт переехал на новый домен Torrents-club.info. Просьба изменить ваши закладки! ***
 
[ Сегодня идет свободное скачивание без начисления Download ]


Статистика раздачи
Нет
 
   
 
 
 
 
Любовницы (2019) WEB-DL [H.264/1080p-LQ]«На тропе войны!»- Производство: Россия / Супер, Революция фильм, КВФильм-Продакшн
Жанр: Комедия
Режиссер: Елена Хазанова
Продюсер: Артём Виткин, Григорий Грановский, Михаил Дворкович, ...
Актеры: Паулина Андреева, Александра Бортич, Юлия Александрова, Мария Шалаева, Сергей Гармаш, Гоша Куценко, Юрий Стоянов, Максим Лагашкин, Александр Робак, Владимир Мишуков ...
Описание:
Три обычные москвички — медсестра, студентка и актриса — случайно встречаются в баре и выясняют, что все они только что расстались со своими мужчинами, которые оказались связаны узами брака. Для начала девушки решают отомстить своим бывшим. Но, когда цель достигнута, у подруг появляется идея: используя свою смекалку и артистические способности, помогать таким же как они, сёстрам по несчастью, выводить на чистую воду неверных мужей и наказывать двуличных любовников. Ведь таких, как они — тысячи…

Возраст: 16+ (зрителям, достигшим 16 лет)
Дата мировой премьеры: 8 марта 2019
Дата российской премьеры: 28 февраля 2019, «WDSSPR»
Релиз от: ELEKTRI4KA
Продолжительность: 01:37:22
Качество видео: WEB-DL
Перевод: Не требуется (русский) iTunes
Субтитры: Отсутствуют
Видео: AVC/H.264, 1920x806, 24.000 fps, 4474 Kbps
Аудио: AC-3, 6 ch, 384 Kbps - Русский

Mediainfo:

General
Unique ID : 174509135742361185101553740099800808327 (0x83493CACA829C7EFAA8A3278FF983B87)
Complete name : Lyubovnitsy.WEB-DL.1080p.ELEKTRI4KA.UNIONGANG.mkv
Format : Matroska
Format version : Version 2
File size : 3.37 GiB
Duration : 1 h 37 min
Overall bit rate : 4 957 kb/s
Movie name : Любовницы (2019) UNIONGANG
Encoded date : UTC 2019-04-11 18:03:41
Writing application : mkvmerge v6.9.1 ('Blue Panther') 32bit built on Apr 18 2014 18:15:44
Writing library : libebml v1.3.0 + libmatroska v1.4.1
Video
ID : 1
Format : AVC
Format/Info : Advanced Video Codec
Format profile : High@L4
Format settings : CABAC / 5 Ref Frames
Format settings, CABAC : Yes
Format settings, ReFrames : 5 frames
Codec ID : V_MPEG4/ISO/AVC
Duration : 1 h 37 min
Bit rate : 4 474 kb/s
Width : 1 920 pixels
Height : 806 pixels
Display aspect ratio : 2.40:1
Frame rate mode : Constant
Frame rate : 24.000 FPS
Color space : YUV
Chroma subsampling : 4:2:0
Bit depth : 8 bits
Scan type : Progressive
Bits/(Pixel*Frame) : 0.120
Stream size : 3.04 GiB (90%)
Title : Любовницы (2019) ELEKTRI4KA
Language : English
Default : Yes
Forced : No
Color range : Limited
Color primaries : BT.709
Transfer characteristics : BT.709
Matrix coefficients : BT.709
Audio
ID : 2
Format : AC-3
Format/Info : Audio Coding 3
Commercial name : Dolby Digital
Codec ID : A_AC3
Duration : 1 h 37 min
Bit rate mode : Constant
Bit rate : 384 kb/s
Channel(s) : 6 channels
Channel layout : L R C LFE Ls Rs
Sampling rate : 48.0 kHz
Frame rate : 31.250 FPS (1536 SPF)
Bit depth : 16 bits
Compression mode : Lossy
Stream size : 267 MiB (8%)
Title : rus [iTunes]
Language : Russian
Service kind : Complete Main
Default : Yes
Forced : No
Menu
00:00:00.000 : en:Глава 1
00:05:53.166 : en:Глава 2
00:12:35.332 : en:Глава 3
00:21:45.831 : en:Глава 4
00:28:45.289 : en:Глава 5
00:33:28.497 : en:Глава 6
00:42:54.497 : en:Глава 7
00:50:50.872 : en:Глава 8
00:57:25.247 : en:Глава 9
01:07:50.080 : en:Глава 10
01:13:25.996 : en:Глава 11
01:19:39.578 : en:Глава 12
01:25:26.994 : en:Глава 13
01:32:32.994 : en:Глава 14
01:37:21.994 : en:Глава 1

Знаете ли вы, что...

Идея фильма появилась из случайно подслушанного режиссером Еленой Хазановой разговора между мужчиной и женщиной, в котором мужчина объяснял своей собеседнице, почему он не может уйти к ней от жены.
Юлия Александрова сама предложила сделать своей героине мелкие кудряшки. Но чтобы не портить волосы ежедневной завивкой, актриса на съемках носила парик.
Грим Марии Шалаевой занимал 2,5 часа.
Готовясь к роли барменши, Мария Шалаева прошла обучение в одном из баров, где ее научили наливать алкоголь, варить кофе, делать узор на капучино. А одну ночную смену актриса даже отработала за стойкой.
Скриншоты:

Доп. скриншоты:



[Цитировать]



Показать сообщения:    

Текущее время: 28-Ноя 04:38

Часовой пояс: UTC + 6


Вы не можете начинать темы
Вы не можете отвечать на сообщения
Вы не можете редактировать свои сообщения
Вы не можете удалять свои сообщения
Вы не можете голосовать в опросах
Вы не можете прикреплять файлы к сообщениям
Вы не можете скачивать файлы

!ВНИМАНИЕ!
Сайт не предоставляет электронные версии произведений, а занимается лишь коллекционированием и каталогизацией ссылок, присылаемых и публикуемых на форуме нашими читателями. Если вы являетесь правообладателем какого-либо представленного материала и не желаете, чтобы ссылка на него находилась в нашем каталоге, свяжитесь с нами, и мы незамедлительно удалим ее. Файлы для обмена на трекере предоставлены пользователями сайта, и администрация не несет ответственности за их содержание. Просьба не заливать файлы, защищенные авторскими правами, а также файлы нелегального содержания!