***Уважаемые пользователи и гости !!! Сайт переехал на новый домен Torrents-club.info. Просьба изменить ваши закладки! ***
 
[ Сегодня идет свободное скачивание без начисления Download ]


Статистика раздачи
Нет
 
   
 
 
 
 
Астерикс и тайное зелье / Astérix: Le secret de la potion magique / 2018 [4K, HEVC, HDR / Blu-Ray Remux] (2160p) Год выпуска: 2018
Жанр: Мультфильм, фэнтези, приключения, детский, семейный, полнометражный
Выпущено: Франция / Canal+, Centre National de la Cinématographie (CNC), Les Editions Albert René, M6, M6 Films, M6 Studio, Mikros Image, OCS, Région Ile-de-France, W9
Режиссер: Александр Астье, Луи Клиши
Продолжительность: 01:24:55
Перевод: Дублированный
Субтитры: Русские
возраст 6+
В ролях: Кристиан Клавье, Гийом Бриа, Алекс Лутс, Александр Астье, Эли Семун, Даниэль Месгиш, Бернар Алан, Франсуа Морель, Лионель Астье, Флоренс Форести

О фильме
: Могучие галлы издревле черпали силу в секретном напитке, который готовил великий старец. Но пришла беда, откуда не ждали — почтенный друид свалился с дерева и сломал обе ноги. Теперь Астериксу и Обеликсу предстоит отправиться в опасное путешествие, чтобы отыскать нового друида, достойного постичь рецепт тайного зелья.
Астерикс и тайное зелье — Русский трейлер #2 (2019) 4K видео
Техданные
Качество: Blu-Ray Remux (2160p)
Видео: HEVC, 65 Mбит/с, 3840x2160, 23.976 Кадр/с
Аудио: Русский, украинский (AC3, 6 ch, 384 Кбит/с), французский (DTS-HD MA, 6 ch, 3901 Кбит/с)
Релиз
Релиз: селезень
Озвучивание: Дублированное [iTunes]
Субтитры: Русские (полные)

MediaInfo:

General
Unique ID                   : 312676392501154799236769217894885302745 (0xEB3B486079A822C8798768889B1321D9)
Complete name               : D:\Video111\Asterix.le.Secret.de.la.Potion.Magique.2018.BDREMUX.2160p.HDR.seleZen.mkv
Format                      : Matroska
Format version              : Version 4
File size                   : 41.3 GiB
Duration                    : 1 h 24 min
Overall bit rate mode       : Variable
Overall bit rate            : 69.7 Mb/s
Movie name                  : Astérix - Le Secret de la Potion Magique 2018 from селезень
Encoded date                : UTC 2019-04-08 05:08:52
Writing application         : mkvmerge v32.0.0 ('Astral Progressions') 64-bit
Writing library             : libebml v1.3.7 + libmatroska v1.5.0
Video
ID                          : 1
Format                      : HEVC
Format/Info                 : High Efficiency Video Coding
Format profile              : Main 10@L5.1@High
HDR format                  : SMPTE ST 2086, HDR10 compatible
Codec ID                    : V_MPEGH/ISO/HEVC
Duration                    : 1 h 24 min
Bit rate                    : 65.0 Mb/s
Width                       : 3 840 pixels
Height                      : 2 160 pixels
Display aspect ratio        : 16:9
Frame rate mode             : Constant
Frame rate                  : 24.000 FPS
Color space                 : YUV
Chroma subsampling          : 4:2:0 (Type 2)
Bit depth                   : 10 bits
Bits/(Pixel*Frame)          : 0.326
Stream size                 : 38.5 GiB (93%)
Writing library             : ATEME Titan File 3.8.18 (4.8.18.2)
Language                    : French
Default                     : Yes
Forced                      : No
Color range                 : Limited
Color primaries             : BT.2020
Transfer characteristics    : PQ
Matrix coefficients         : BT.2020 non-constant
Mastering display color pri : Display P3
Mastering display luminance : min: 0.0050 cd/m2, max: 1000 cd/m2
Maximum Content Light Level : 435 cd/m2
Maximum Frame-Average Light : 290 cd/m2
Audio #1
ID                          : 2
Format                      : AC-3
Format/Info                 : Audio Coding 3
Commercial name             : Dolby Digital
Codec ID                    : A_AC3
Duration                    : 1 h 24 min
Bit rate mode               : Constant
Bit rate                    : 384 kb/s
Channel(s)                  : 6 channels
Channel layout              : L R C LFE Ls Rs
Sampling rate               : 48.0 kHz
Frame rate                  : 31.250 FPS (1536 SPF)
Bit depth                   : 16 bits
Compression mode            : Lossy
Stream size                 : 233 MiB (1%)
Title                       : iTunes
Language                    : Russian
Service kind                : Complete Main
Default                     : Yes
Forced                      : Yes
Audio #2
ID                          : 3
Format                      : AC-3
Format/Info                 : Audio Coding 3
Commercial name             : Dolby Digital
Codec ID                    : A_AC3
Duration                    : 1 h 24 min
Bit rate mode               : Constant
Bit rate                    : 384 kb/s
Channel(s)                  : 6 channels
Channel layout              : L R C LFE Ls Rs
Sampling rate               : 48.0 kHz
Frame rate                  : 31.250 FPS (1536 SPF)
Bit depth                   : 16 bits
Compression mode            : Lossy
Stream size                 : 233 MiB (1%)
Title                       : iTunes
Language                    : Ukrainian
Service kind                : Complete Main
Default                     : No
Forced                      : No
Audio #3
ID                          : 4
Format                      : DTS XLL
Format/Info                 : Digital Theater Systems
Commercial name             : DTS-HD Master Audio
Codec ID                    : A_DTS
Duration                    : 1 h 24 min
Bit rate mode               : Variable
Bit rate                    : 3 901 kb/s
Channel(s)                  : 6 channels
Channel layout              : C L R Ls Rs LFE
Sampling rate               : 48.0 kHz
Frame rate                  : 93.750 FPS (512 SPF)
Bit depth                   : 24 bits
Compression mode            : Lossless
Stream size                 : 2.31 GiB (6%)
Title                       : Original
Language                    : French
Default                     : No
Forced                      : No
Text
ID                          : 5
Format                      : UTF-8
Codec ID                    : S_TEXT/UTF8
Codec ID/Info               : UTF-8 Plain Text
Duration                    : 1 h 17 min
Bit rate                    : 120 b/s
Count of elements           : 921
Stream size                 : 68.6 KiB (0%)
Title                       : Full
Language                    : Russian
Default                     : No
Forced                      : No
Menu
00:00:00.000                : fr:Глава 01
00:06:16.042                : fr:Глава 02
00:15:43.250                : fr:Глава 03
00:21:45.167                : fr:Глава 04
00:28:47.792                : fr:Глава 05
00:35:00.000                : fr:Глава 06
00:42:39.458                : fr:Глава 07
00:50:30.333                : fr:Глава 08
00:57:33.708                : fr:Глава 09
01:04:05.458                : fr:Глава 10
01:13:32.000                : fr:Глава 11
01:21:07.333                : fr:Глава 12

Скриншоты

[Цитировать]



Показать сообщения:    

Текущее время: 30-Ноя 16:05

Часовой пояс: UTC + 6


Вы не можете начинать темы
Вы не можете отвечать на сообщения
Вы не можете редактировать свои сообщения
Вы не можете удалять свои сообщения
Вы не можете голосовать в опросах
Вы не можете прикреплять файлы к сообщениям
Вы не можете скачивать файлы

!ВНИМАНИЕ!
Сайт не предоставляет электронные версии произведений, а занимается лишь коллекционированием и каталогизацией ссылок, присылаемых и публикуемых на форуме нашими читателями. Если вы являетесь правообладателем какого-либо представленного материала и не желаете, чтобы ссылка на него находилась в нашем каталоге, свяжитесь с нами, и мы незамедлительно удалим ее. Файлы для обмена на трекере предоставлены пользователями сайта, и администрация не несет ответственности за их содержание. Просьба не заливать файлы, защищенные авторскими правами, а также файлы нелегального содержания!