***Уважаемые пользователи и гости !!! Сайт переехал на новый домен Torrents-club.info. Просьба изменить ваши закладки! ***
 
[ Сегодня идет свободное скачивание без начисления Download ]


Статистика раздачи
Скачал: [ 1 ]
 
   
 
 
 
 
СестрёнкаИнформация о фильме
Название: Сестренка
Год выхода: 2019
Жанр: Драма, военный
Режиссер: Александр Галибин
Актеры: Арслан Крbiмчурин, Марта Тимофеева, Юсуф Рахметов, Ильгиза Гильманова, Сулпан Абдрахимова, Рауис Загитов, Виталий Салий, Нажиба Искандарова, Руслан Хайсаров, Гульназ Хайсарова
Описание:
Сколько себя помнит Ямиль, война была всегда. Но Ямиль очень ждёт, когда она кончится — ведь тогда вернётся Отец, которого Ямиль знает только по фотографиям и письмам.
Однажды Мама уезжает в далёкий город и привозит с собой молчаливую девочку Оксану и передает наказ Отца заботиться о ней, как о родной сестрёнке…

Производство: Россия / Мотор Фильм Студия
Продолжительность: 01:34:21
Перевод: Не требуется (русский) iTunes
Субтитры: Отсутствуют
Файл
Качество видео: WEB-DL 1080p
Видео: AVC/H.264, 1920x1038 (1,85:1), ~5054 Kbps
Аудио: AC3, 6 ch, 384 Kbps

M/I

Общее
Формат : Matroska
Версия формата : Version 4
Размер файла : 3,66 Гбайт
Продолжительность : 1 ч. 34 м.
Общий поток : 5549 Кбит/сек
Дата кодирования : UTC 2019-10-19 18:16:54
Программа кодирования : mkvmerge v6.9.1 ('Blue Panther') 32bit built on Apr 18 2014 18:15:44
Библиотека кодирования : libebml v1.3.0 + libmatroska v1.4.1
Обложка : Yes
Attachments : cover.png
Видео
Идентификатор : 1
Формат : AVC
Формат/Информация : Advanced Video Codec
Профиль формата : High@L4
Настройки формата : CABAC / 4 Ref Frames
Параметр CABAC формата : Да
Параметр RefFrames формата : 4 кадра
Идентификатор кодека : V_MPEG4/ISO/AVC
Продолжительность : 1 ч. 34 м.
Битрейт : 5054 Кбит/сек
Ширина : 1920 пикселей
Высота : 1038 пикселей
Соотношение сторон : 1,85:1
Режим частоты кадров : Постоянный
Частота кадров : 24,000 кадра/сек
Цветовое пространство : YUV
Субдискретизация насыщенности : 4:2:0
Битовая глубина : 8 бит
Тип развёртки : Прогрессивная
Бит/(Пиксели*Кадры) : 0.106
Размер потока : 3,33 Гбайт (91%)
Язык : English
Default : Да
Forced : Нет
Цветовой диапазон : Limited
Основные цвета : BT.709
Характеристики трансфера : BT.709
Коэффициенты матрицы : BT.709
Аудио
Идентификатор : 2
Формат : AC-3
Формат/Информация : Audio Coding 3
Коммерческое название : Dolby Digital
Идентификатор кодека : A_AC3
Продолжительность : 1 ч. 34 м.
Вид битрейта : Постоянный
Битрейт : 384 Кбит/сек
Каналы : 6 каналов
ChannelLayout : L R C LFE Ls Rs
Частота : 48,0 КГц
Частота кадров : 31,250 кадров/сек (1536 SPF)
Метод сжатия : С потерями
Размер потока : 259 Мбайт (7%)
Заголовок : [ORIGINAL] DD 5.1 @ 384 kbps (iTunes)
Язык : Russian
ServiceKind : Complete Main
Default : Да
Forced : Нет
Меню
00:00:00.000 : en:Глава 1
00:08:16.291 : en:Глава 2
00:16:26.374 : en:Глава 3
00:24:36.707 : en:Глава 4
00:32:37.915 : en:Глава 5
00:40:42.956 : en:Глава 6
00:48:45.414 : en:Глава 7
00:57:04.747 : en:Глава 8
01:05:41.205 : en:Глава 9
01:14:32.996 : en:Глава 10
01:23:01.079 : en:Глава 11

Скриншоты

[Цитировать]



Показать сообщения:    

Текущее время: 14-Июл 10:05

Часовой пояс: UTC + 6


Вы не можете начинать темы
Вы не можете отвечать на сообщения
Вы не можете редактировать свои сообщения
Вы не можете удалять свои сообщения
Вы не можете голосовать в опросах
Вы не можете прикреплять файлы к сообщениям
Вы не можете скачивать файлы

!ВНИМАНИЕ!
Сайт не предоставляет электронные версии произведений, а занимается лишь коллекционированием и каталогизацией ссылок, присылаемых и публикуемых на форуме нашими читателями. Если вы являетесь правообладателем какого-либо представленного материала и не желаете, чтобы ссылка на него находилась в нашем каталоге, свяжитесь с нами, и мы незамедлительно удалим ее. Файлы для обмена на трекере предоставлены пользователями сайта, и администрация не несет ответственности за их содержание. Просьба не заливать файлы, защищенные авторскими правами, а также файлы нелегального содержания!