***Уважаемые пользователи и гости !!! Сайт переехал на новый домен Torrents-club.info. Просьба изменить ваши закладки! ***
 
[ Сегодня идет свободное скачивание без начисления Download ]


Статистика раздачи
Скачал: [ 1 ]
 
   
 
 
 
 
Отчим [01-16 из 16] (2019)Год выпуска: 2019
Жанр: Драма, историческая сага
Выпущено: Россия, Киностудия КИТ, Студия Бонанза
Режиссер: Сергей Гинзбург
В ролях: Карина Андоленко, Антон Хабаров, Артём Быстров, Александр Бухаров, Владимир Гостюхин, Василий Бочкарёв, Сергей Власов (II), Сергей Соцердотский, Роман Евдокимов, Ольга Веникова, Ксения Теплова, Игорь Сигов, Ефим Цуба, Ольга Нефёдова, Вера Кавалерова, Алла Пролич, Наталья Холодович, Александр Островский, Сергей Ходьков, Вильма Кутавичюте, Елизавета Бугулова, Василиса Измайлова, Алиса Лозовская, Марина Поддубная, Алексей Колган, Олег Ткачёв, Анастасия Липянская
О фильме: История начинается в 1952 году, в сибирской глубинке: первая красавица посёлка Настя семь лет ждёт мужа с фронта. Её жалеют, но за спиной шепчутся: чего ждать, кому было суждено прийти – пришли…. Однажды ночью в дом Насти стучится новый председатель местного крайкома партии - молодой, галантный мужчина Игорь Галицкий. Эта встреча становится судьбоносной. Вместе они пройдут трудные испытания, их истинное, глубокое и взаимное чувство преодолеет «проверку на прочность». И первым таким испытанием станет внезапное возвращение Ивана, мужа Насти. Тайна, которую он скрывает, еще больше разделяет его с семьей и делает жизнь главной героини невыносимой. Суровое время беспощадно. По доносу снят с поста и арестован самый дорогой для Насти человек – Игорь. На фоне драматических событий, разыгрывающихся в стране, героям саги предстоит проделать нелегкий путь, чтобы обрести простое и такое хрупкое Счастье.

Качество: HDTV (1080i)
Видео: MPEG-TS AVC, ~ 5000 Кбит/с, 1920x1080, 25 кадр/с
Аудио: Русский (AC3, 2 ch, 384 Кбит/с), (MP2, 2 ch, 192 Кбит/с)
Продолжительность: 16 х ~ 00:50:00
Перевод: Не требуется
Субтитры: нет

Скриншоты


MediaInfo

Общее
Идентификатор : 1 (0x1)
Полное имя : D:ЗаписьOtchim.HDTV(1080i).GeneralFilm1.Otchim.HDTV(1080i).GeneralFilm.ts
Формат : MPEG-TS
Размер файла : 2,25 Гбайт
Продолжительность : 51 м. 8 с.
Режим общего битрейта : Переменный
Общий поток : 6303 Кбит/сек
Видео
Идентификатор : 1904 (0x770)
Идентификатор меню : 80 (0x50)
Формат : AVC
Формат/Информация : Advanced Video Codec
Профиль формата : High@L4
Параметр CABAC формата : Да
Параметр ReFrames формата : 3 кадра
Идентификатор кодека : 27
Продолжительность : 51 м. 8 с.
Битрейт : 5409 Кбит/сек
Ширина : 1920 пикселей
Высота : 1080 пикселей
Соотношение сторон : 16:9
Частота кадров : 25,000 кадров/сек
Стандарт вещания : Component
Цветовое пространство : YUV
Субдискретизация насыщенности : 4:2:0
Битовая глубина : 8 бит
Тип развёртки : Чересстрочная
Метод сохранения типа развёртки : Раздельные поля
Порядок развёртки : Верхнее поле первое
Бит/(Пиксели*Кадры) : 0.104
Размер потока : 1,93 Гбайт (86%)
Цветовой диапазон : Limited
Основные цвета : BT.709
Характеристики трансфера : BT.709
Коэффициенты матрицы : BT.709
Аудио #1
Идентификатор : 2904 (0xB58)
Идентификатор меню : 80 (0x50)
Формат : AC-3
Формат/Информация : Audio Coding 3
Расширение режима : CM (complete main)
Параметр Endianness формата : Big
Идентификатор кодека : 6
Продолжительность : 51 м. 8 с.
Вид битрейта : Постоянный
Битрейт : 384 Кбит/сек
Каналы : 6 каналов
Расположение каналов : Front: L C R, Side: L R, LFE
Частота : 48,0 КГц
Частота кадров : 31,250 кадров/сек (1536 spf)
Битовая глубина : 16 бит
Метод сжатия : С потерями
Задержка видео : -40 мс.
Размер потока : 140 Мбайт (6%)
Язык : Russian
Аудио #2
Идентификатор : 2905 (0xB59)
Идентификатор меню : 80 (0x50)
Формат : MPEG Audio
Версия формата : Version 1
Профиль формата : Layer 2
Идентификатор кодека : 3
Продолжительность : 51 м. 8 с.
Вид битрейта : Постоянный
Битрейт : 192 Кбит/сек
Каналы : 2 канала
Частота : 48,0 КГц
Метод сжатия : С потерями
Задержка видео : -40 мс.
Размер потока : 70,2 Мбайт (3%)
Язык : Russian
Общее
Идентификатор : 1 (0x1)
Полное имя : D:ЗаписьOtchim.HDTV(1080i).GeneralFilm2.Otchim.HDTV(1080i).GeneralFilm.ts
Формат : MPEG-TS
Размер файла : 2,03 Гбайт
Продолжительность : 50 м. 57 с.
Режим общего битрейта : Переменный
Общий поток : 5716 Кбит/сек
Видео
Идентификатор : 1904 (0x770)
Идентификатор меню : 80 (0x50)
Формат : AVC
Формат/Информация : Advanced Video Codec
Профиль формата : High@L4
Параметр CABAC формата : Да
Параметр ReFrames формата : 3 кадра
Идентификатор кодека : 27
Продолжительность : 50 м. 57 с.
Битрейт : 4852 Кбит/сек
Ширина : 1920 пикселей
Высота : 1080 пикселей
Соотношение сторон : 16:9
Частота кадров : 25,000 кадров/сек
Стандарт вещания : Component
Цветовое пространство : YUV
Субдискретизация насыщенности : 4:2:0
Битовая глубина : 8 бит
Тип развёртки : Чересстрочная
Метод сохранения типа развёртки : Раздельные поля
Порядок развёртки : Верхнее поле первое
Бит/(Пиксели*Кадры) : 0.094
Размер потока : 1,73 Гбайт (85%)
Цветовой диапазон : Limited
Основные цвета : BT.709
Характеристики трансфера : BT.709
Коэффициенты матрицы : BT.709
Аудио #1
Идентификатор : 2904 (0xB58)
Идентификатор меню : 80 (0x50)
Формат : AC-3
Формат/Информация : Audio Coding 3
Расширение режима : CM (complete main)
Параметр Endianness формата : Big
Идентификатор кодека : 6
Продолжительность : 50 м. 57 с.
Вид битрейта : Постоянный
Битрейт : 384 Кбит/сек
Каналы : 6 каналов
Расположение каналов : Front: L C R, Side: L R, LFE
Частота : 48,0 КГц
Частота кадров : 31,250 кадров/сек (1536 spf)
Битовая глубина : 16 бит
Метод сжатия : С потерями
Задержка видео : -40 мс.
Размер потока : 140 Мбайт (7%)
Язык : Russian
Аудио #2
Идентификатор : 2905 (0xB59)
Идентификатор меню : 80 (0x50)
Формат : MPEG Audio
Версия формата : Version 1
Профиль формата : Layer 2
Идентификатор кодека : 3
Продолжительность : 50 м. 57 с.
Вид битрейта : Постоянный
Битрейт : 192 Кбит/сек
Каналы : 2 канала
Частота : 48,0 КГц
Метод сжатия : С потерями
Задержка видео : -40 мс.
Размер потока : 70,0 Мбайт (3%)
Язык : Russian

[Цитировать]



Показать сообщения:    

Текущее время: 18-Янв 20:11

Часовой пояс: UTC + 6


Вы не можете начинать темы
Вы не можете отвечать на сообщения
Вы не можете редактировать свои сообщения
Вы не можете удалять свои сообщения
Вы не можете голосовать в опросах
Вы не можете прикреплять файлы к сообщениям
Вы не можете скачивать файлы

!ВНИМАНИЕ!
Сайт не предоставляет электронные версии произведений, а занимается лишь коллекционированием и каталогизацией ссылок, присылаемых и публикуемых на форуме нашими читателями. Если вы являетесь правообладателем какого-либо представленного материала и не желаете, чтобы ссылка на него находилась в нашем каталоге, свяжитесь с нами, и мы незамедлительно удалим ее. Файлы для обмена на трекере предоставлены пользователями сайта, и администрация не несет ответственности за их содержание. Просьба не заливать файлы, защищенные авторскими правами, а также файлы нелегального содержания!