***Уважаемые пользователи и гости !!! Сайт переехал на новый домен Torrents-club.info. Просьба изменить ваши закладки! ***
 
[ Сегодня идет свободное скачивание без начисления Download ]


Статистика раздачи
Нет
 
   
 
 
 
 
Особь 2 / Species II-- Информация о фильме:
Название: Особь 2
Оригинальное название: Species II
Год выхода: 1998
Жанр: ужасы, фантастика, боевик, триллер
Режиссер: Питер Медак
В ролях: Майкл Мэдсен, Наташа Хенстридж, Марг Хельгенбергер, Майкелти Уильямсон, Джордж Дзундза, Джеймс Кромуэлл, Джастин Лазард, Мириам Сир, Сара Уайнтер, Бакстер Харрис
О фильме:
Ученые — астронавты возвращаются на Землю после успешной экспедиции на Марс. Однако с различными пробами на корабль проникает нечто ужасное, что угрожает жизни землян. Один из участников полета превращается в неземную тварь и жаждет наплодить себе подобных. Ему необходимо встретиться с другой особью, которую изучают в лаборатории. Этого не должно произойти…
Великолепные спецэффекты дают ощущение реальности происходящего и поражают воображение. Высококлассная работа выполнена той же командой художников, которая делала первый фильм.

Страна: США
Студия: Metro Goldwyn Mayer
Продолжительность: 01:33:03
Перевод: Профессиональный (многоголосый, закадровый) + профессиональный (двуголосый, закадровый)
Субтитры: Русские, английские
Файл
Формат: MKV
Качество: BDRip-AVC | [Species.II.1998.BDRemux]
Видео: 1032x560 at 23.976 fps, x264, ~2971 kbps
Аудио #1: AC3, 2 ch, ~192 kbps - | Русский | - MVO - Варус-Видео
Аудио #2: AC3, 2 ch, ~192 kbps - | Русский | - DVO - НТВ+
Формат субтитров: softsub (SRT)--

M/I

x264 info: frame I:871 Avg QP:16.00 size: 67284
x264 info: frame P:29016 Avg QP:17.18 size: 29865
x264 info: frame B:103957 Avg QP:18.81 size: 10890
x264 info: consecutive B-frames: 2.4% 3.5% 9.3% 13.5% 14.5% 42.1% 6.4% 2.7% 1.7% 1.0% 0.8% 1.9% 0.3%
General
Complete name : E:ВИДЕО_2Не удалять_1Особь.2.(1998).BDRip-AVC.[-=DoMiNo=-].mkv
Format : Matroska
Format version : Version 4
File size : 2.18 GiB
Duration : 1 h 33 min
Overall bit rate : 3 357 kb/s
Movie name : Особь 2 / Species II (1998)
Encoded date : UTC 2019-12-10 08:23:32
Writing application : mkvmerge v41.0.0 ('Smarra') 64-bit
Writing library : libebml v1.3.9 + libmatroska v1.5.2
Attachments : poster.png / poster 2.jpg
Video
ID : 1
Format : AVC
Format/Info : Advanced Video Codec
Format profile : High@L4.1
Format settings : CABAC / 14 Ref Frames
Format settings, CABAC : Yes
Format settings, Reference : 14 frames
Codec ID : V_MPEG4/ISO/AVC
Duration : 1 h 33 min
Bit rate : 2 971 kb/s
Width : 1 032 pixels
Height : 560 pixels
Display aspect ratio : 1.85:1
Frame rate mode : Constant
Frame rate : 23.976 (24000/1001) FPS
Color space : YUV
Chroma subsampling : 4:2:0
Bit depth : 8 bits
Scan type : Progressive
Bits/(Pixel*Frame) : 0.214
Stream size : 1.93 GiB (88%)
Title : RIP_BY_-=DoMiNo=-
Writing library : x264 core 157 r2935 545de2f
Encoding settings : cabac=1 / ref=14 / deblock=1:-2:-2 / analyse=0x3:0x133 / me=umh / subme=11 / psy=1 / psy_rd=0.90:0.05 / mixed_ref=1 / me_range=48 / chroma_me=1 / trellis=2 / 8x8dct=1 / cqm=0 / deadzone=21,11 / fast_pskip=0 / chroma_qp_offset=-3 / threads=6 / lookahead_threads=1 / sliced_threads=0 / nr=0 / decimate=1 / interlaced=0 / bluray_compat=0 / constrained_intra=0 / bframes=12 / b_pyramid=2 / b_adapt=2 / b_bias=0 / direct=3 / weightb=1 / open_gop=0 / weightp=2 / keyint=250 / keyint_min=23 / scenecut=40 / intra_refresh=0 / rc=2pass / mbtree=0 / bitrate=2971 / ratetol=1.0 / qcomp=0.70 / qpmin=0 / qpmax=69 / qpstep=4 / cplxblur=20.0 / qblur=0.5 / ip_ratio=1.40 / pb_ratio=1.30 / aq=3:0.80
Language : English
Default : Yes
Forced : No
Audio #1
ID : 2
Format : AC-3
Format/Info : Audio Coding 3
Commercial name : Dolby Digital
Codec ID : A_AC3
Duration : 1 h 33 min
Bit rate mode : Constant
Bit rate : 192 kb/s
Channel(s) : 2 channels
Channel layout : L R
Sampling rate : 48.0 kHz
Frame rate : 31.250 FPS (1536 SPF)
Compression mode : Lossy
Stream size : 128 MiB (6%)
Title : MVO Варус-Видео
Language : Russian
Service kind : Complete Main
Default : Yes
Forced : No
Audio #2
ID : 3
Format : AC-3
Format/Info : Audio Coding 3
Commercial name : Dolby Digital
Codec ID : A_AC3
Duration : 1 h 33 min
Bit rate mode : Constant
Bit rate : 192 kb/s
Channel(s) : 2 channels
Channel layout : L R
Sampling rate : 48.0 kHz
Frame rate : 31.250 FPS (1536 SPF)
Compression mode : Lossy
Stream size : 128 MiB (6%)
Title : DVO НТВ+
Language : Russian
Service kind : Complete Main
Default : No
Forced : No
Text #1
ID : 4
Format : UTF-8
Codec ID : S_TEXT/UTF8
Codec ID/Info : UTF-8 Plain Text
Duration : 1 h 25 min
Bit rate : 84 b/s
Count of elements : 804
Stream size : 52.9 KiB (0%)
Title : Full
Language : Russian
Default : No
Forced : No
Text #2
ID : 5
Format : UTF-8
Codec ID : S_TEXT/UTF8
Codec ID/Info : UTF-8 Plain Text
Duration : 1 h 25 min
Bit rate : 49 b/s
Count of elements : 928
Stream size : 31.2 KiB (0%)
Title : Full
Language : English
Default : No
Forced : No
Text #3
ID : 6
Format : UTF-8
Codec ID : S_TEXT/UTF8
Codec ID/Info : UTF-8 Plain Text
Duration : 1 h 26 min
Bit rate : 51 b/s
Count of elements : 995
Stream size : 32.5 KiB (0%)
Title : SDH
Language : English
Default : No
Forced : No
Menu
00:00:00.000 : en:Chapter 01
00:10:15.740 : en:Chapter 02
00:20:20.969 : en:Chapter 03
00:27:59.552 : en:Chapter 04
00:33:52.447 : en:Chapter 05
00:41:16.056 : en:Chapter 06
00:49:01.897 : en:Chapter 07
00:58:37.180 : en:Chapter 08
01:05:50.112 : en:Chapter 09
01:12:49.782 : en:Chapter 10
01:20:02.547 : en:Chapter 11
01:25:15.735 : en:Chapter 12
--

[Цитировать]



Показать сообщения:    

Текущее время: 18-Янв 20:44

Часовой пояс: UTC + 6


Вы не можете начинать темы
Вы не можете отвечать на сообщения
Вы не можете редактировать свои сообщения
Вы не можете удалять свои сообщения
Вы не можете голосовать в опросах
Вы не можете прикреплять файлы к сообщениям
Вы не можете скачивать файлы

!ВНИМАНИЕ!
Сайт не предоставляет электронные версии произведений, а занимается лишь коллекционированием и каталогизацией ссылок, присылаемых и публикуемых на форуме нашими читателями. Если вы являетесь правообладателем какого-либо представленного материала и не желаете, чтобы ссылка на него находилась в нашем каталоге, свяжитесь с нами, и мы незамедлительно удалим ее. Файлы для обмена на трекере предоставлены пользователями сайта, и администрация не несет ответственности за их содержание. Просьба не заливать файлы, защищенные авторскими правами, а также файлы нелегального содержания!