***Уважаемые пользователи и гости !!! Сайт переехал на новый домен Torrents-club.info. Просьба изменить ваши закладки! ***
 
[ Сегодня идет свободное скачивание без начисления Download ]


Статистика раздачи
Скачал: [ 3 ]
 
   
 
 
 
 
Холодное сердце 2 / Frozen II (2019) [HEVC, HDR, UHD, 4K / BDRip] (2160p) Год выпуска: 2019
Жанр: Мультфильм, мюзикл, фэнтези, комедия, приключения, семейный, полнометражный
Выпущено: США, Walt Disney Animation Studios, Walt Disney Pictures
Режиссер: Крис Бак, Дженнифер Ли
Продолжительность: 01:43:13
Перевод: Дублированный
Субтитры: Русские, английские
возраст 6+

В ролях
: Идина Мензел, Кристен Белл, Джонатан Грофф, Джош Гэд, Стерлинг К. Браун, Эван Рэйчел Вуд, Альфред Молина, Марта Плимптон, Джейсон Риттер, Рэйчел Мэттьюз

О фильме
: Королевство Эренделл вместе с королевной Эльзой может наконец-то передохнуть от опасных событий. Наступили тихие времена. Сестра Анна всё-таки обрела свою любовь, о которой так безумно мечтала. Однажды сёстры решают устроить во дворце рождественский приём для всех жителей города. Праздник удался, но жители уходят пораньше, дабы успеть отпраздновать Рождество в кругу семьи согласно традиций. Тогда же девушки и начинают понимать, что у них самих-то нет ни одной семейной традиции. Узнав об этом, снеговик Олаф решает отправиться в увлекательное путешествие по королевству, чтобы выяснить у его жителей, по каким традициям нужно праздновать Рождество.
ХОЛОДНОЕ СЕРДЦЕ 2 Русский Трейлер #1 (4K ULTRA HD
Техданные
Качество: BDRip (2160p)
Видео: HEVC, 5.9 Mбит/с, 3840x2076, 23.976 Кадр/с, 10 Бит
Аудио: Русский (AC3, 6 ch, 384 Кбит/с), (AC3, 2 ch, 192 Кбит/с), английский (TrueHD, 8 ch, 8449 Кбит/с), (AC3, 6 ch, 640 Кбит/с)

Релиз

Мастер 5
Формат: Main 10@L5.1@High_x265_HDR10
Цветовой праймериз: BT.2020
Характеристики передачи: PQ
Матричные коэффициенты: BT.2020
Освоение основных цветов дисплея: Дисплей P3
Освоение яркости дисплея: min: 0.0001 cd/m2, max: 1000 cd/m2
Видео: HEVC HDR, 5.9 Mбит/с, 3840x1608, 23.976 кадр/с
Русский: 48 kHz, AC3 Dolby Digital, 5.1 (L,R) ch, 384 kbps / Дубляж, iTunes
Русский: 48 kHz, AC3 Dolby Digital, 2/0 (L,R) ch, 192 kbps / Дубляж, Онлайн кинотеатр
Английский: 48 kHz, Dolby TrueHD, 7/1 (L,C,R,l,r) + LFE ch, 8449 kbps
Английский: 48 kHz, AC3 Dolby Digital, 3/2 (L,C,R,l,r) + LFE ch, 640 kbps
Субтитры: Русские (Full), Английские (SDH)

MediaInfo:

Общее
Уникальный идентификатор                 : 195211287342518246751062198250357243456 (0x92DC538D7A61576082EED4641C4DBE40)
Полное имя                               : G:\Frozen.II.2019.2160p.UHD.BDRip.X265.10bit.HDR.Master5.mkv
Формат                                   : Matroska
Версия формата                           : Version 4
Размер файла                             : 11,4 Гбайт
Продолжительность                        : 1 ч. 43 м.
Режим общего битрейта                    : Переменный
Общий поток                              : 15,7 Мбит/сек
Название фильма                          : Frozen.II.2019.2160p.UHD.BDRip.X265.10bit.HDR.Master5
Дата кодирования                         : UTC 2020-02-13 22:11:25
Программа кодирования                    : mkvmerge v7.9.0 ('Birds') 64bit
Библиотека кодирования                   : libebml v1.3.1 + libmatroska v1.4.2
Обложка                                  : Yes
Attachments                              : cover.png
Видео
Идентификатор                            : 1
Формат                                   : HEVC
Формат/Информация                        : High Efficiency Video Coding
Коммерческое название                    : HDR10
Профиль формата                          : Main 10@L5.1@High
Идентификатор кодека                     : V_MPEGH/ISO/HEVC
Продолжительность                        : 1 ч. 43 м.
Битрейт                                  : 5998 Кбит/сек
Ширина                                   : 3840 пикселей
Высота                                   : 1608 пикселей
Соотношение сторон                       : 2,40:1
Режим частоты кадров                     : Постоянный
Частота кадров                           : 23,976 (24000/1001) кадра/сек
Цветовое пространство                    : YUV
Субдискретизация насыщенности            : 4:2:0 (Type 2)
Битовая глубина                          : 10 бит
Бит/(Пиксели*Кадры)                      : 0.041
Размер потока                            : 4,32 Гбайт (38%)
Заголовок                                : Frozen.II.2019.2160p.UHD.BDRip.X265.10bit.HDR.Master5
Библиотека кодирования                   : x265 3.2+23-52135ffd9bcd:[Windows][GCC 9.2.1][64 bit] 10bit
Настройки программы                      : cpuid=1176575 / frame-threads=5 / numa-pools=36 / wpp / no-pmode / no-pme / no-psnr / no-ssim / log-level=2 / input-csp=1 / input-res=3840x1608 / interlace=0 / total-frames=148499 / level-idc=51 / high-tier=1 / uhd-bd=0 / ref=4 / no-allow-non-conformance / repeat-headers / annexb / aud / hrd / info / hash=0 / no-temporal-layers / no-open-gop / min-keyint=1 / keyint=24 / gop-lookahead=0 / bframes=4 / b-adapt=2 / b-pyramid / bframe-bias=0 / rc-lookahead=25 / lookahead-slices=4 / scenecut=40 / hist-scenecut=0 / radl=0 / no-splice / no-intra-refresh / ctu=64 / min-cu-size=8 / rect / no-amp / max-tu-size=32 / tu-inter-depth=1 / tu-intra-depth=1 / limit-tu=0 / rdoq-level=2 / dynamic-rd=0.00 / no-ssim-rd / signhide / no-tskip / nr-intra=0 / nr-inter=0 / no-constrained-intra / no-strong-intra-smoothing / max-merge=3 / limit-refs=3 / limit-modes / me=3 / subme=3 / merange=57 / temporal-mvp / no-frame-dup / no-hme / weightp / no-weightb / no-analyze-src-pics / deblock=-3:-3 / no-sao / no-sao-non-deblock / rd=4 / selective-sao=0 / no-early-skip / rskip / no-fast-intra / no-tskip-fast / no-cu-lossless / no-b-intra / no-splitrd-skip / rdpenalty=0 / psy-rd=2.00 / psy-rdoq=1.00 / no-rd-refine / no-lossless / cbqpoffs=0 / crqpoffs=0 / rc=crf / crf=17.0 / qcomp=0.60 / qpstep=4 / stats-write=0 / stats-read=0 / vbv-maxrate=160000 / vbv-bufsize=160000 / vbv-init=0.9 / crf-max=0.0 / crf-min=0.0 / ipratio=1.40 / pbratio=1.30 / aq-mode=1 / aq-strength=1.00 / cutree / zone-count=0 / no-strict-cbr / qg-size=32 / no-rc-grain / qpmax=69 / qpmin=0 / no-const-vbv / sar=1 / overscan=0 / videoformat=5 / range=0 / colorprim=9 / transfer=16 / colormatrix=9 / chromaloc=1 / chromaloc-top=2 / chromaloc-bottom=2 / display-window=0 / master-display=G(13250,34500)B(7500,3000)R(34000,16000)WP(15635,16450)L(10000000,1) / cll=0,0 / min-luma=0 / max-luma=1023 / log2-max-poc-lsb=8 / vui-timing-info / vui-hrd-info / slices=1 / no-opt-qp-pps / no-opt-ref-list-length-pps / no-multi-pass-opt-rps / scenecut-bias=0.05 / hist-threshold=0.01 / no-opt-cu-delta-qp / no-aq-motion / hdr / hdr-opt / no-dhdr10-opt / no-idr-recovery-sei / analysis-reuse-level=5 / scale-factor=0 / refine-intra=0 / refine-inter=0 / refine-mv=1 / refine-ctu-distortion=0 / no-limit-sao / ctu-info=0 / no-lowpass-dct / refine-analysis-type=0 / copy-pic=1 / max-ausize-factor=1.0 / no-dynamic-refine / no-single-sei / no-hevc-aq / no-svt / no-field / qp-adaptation-range=1.00 / no-scenecut-aware-qp
Default                                  : Да
Forced                                   : Нет
Цветовой диапазон                        : Limited
Основные цвета                           : BT.2020
Характеристики трансфера                 : PQ
Коэффициенты матрицы                     : BT.2020 non-constant
MasteringDisplay_ColorPrimaries          : Display P3
MasteringDisplay_Luminance               : min: 0.0001 cd/m2, max: 1000 cd/m2
Аудио #1
Идентификатор                            : 2
Формат                                   : AC-3
Формат/Информация                        : Audio Coding 3
Коммерческое название                    : Dolby Digital
Идентификатор кодека                     : A_AC3
Продолжительность                        : 1 ч. 43 м.
Вид битрейта                             : Постоянный
Битрейт                                  : 192 Кбит/сек
Каналы                                   : 2 канала
Channel layout                           : L R
Частота                                  : 48,0 КГц
Частота кадров                           : 31,250 кадров/сек (1536 SPF)
Битовая глубина                          : 16 бит
Метод сжатия                             : С потерями
Размер потока                            : 142 Мбайт (1%)
Заголовок                                : Дубляж, Онлайн кинотеатр
Язык                                     : Russian
ServiceKind/String                       : Complete Main
Default                                  : Нет
Forced                                   : Нет
Аудио #2
Идентификатор                            : 3
Формат                                   : AC-3
Формат/Информация                        : Audio Coding 3
Коммерческое название                    : Dolby Digital
Идентификатор кодека                     : A_AC3
Продолжительность                        : 1 ч. 43 м.
Вид битрейта                             : Постоянный
Битрейт                                  : 384 Кбит/сек
Каналы                                   : 6 каналов
Channel layout                           : L R C LFE Ls Rs
Частота                                  : 48,0 КГц
Частота кадров                           : 31,250 кадров/сек (1536 SPF)
Битовая глубина                          : 16 бит
Метод сжатия                             : С потерями
Размер потока                            : 283 Мбайт (2%)
Заголовок                                : iTunes
Язык                                     : Russian
ServiceKind/String                       : Complete Main
Default                                  : Нет
Forced                                   : Да
Аудио #3
Идентификатор                            : 4
Формат                                   : MLP FBA 16-ch
Формат/Информация                        : Meridian Lossless Packing FBA with 16-channel presentation
Коммерческое название                    : Dolby TrueHD with Dolby Atmos
Идентификатор кодека                     : A_TRUEHD
Продолжительность                        : 1 ч. 43 м.
Вид битрейта                             : Переменный
Битрейт                                  : 8449 Кбит/сек
Максимальный битрейт                     : 10,6 Мбит/сек
Каналы                                   : 8 каналов
Channel layout                           : L R C LFE Ls Rs Lb Rb
Частота                                  : 48,0 КГц
Частота кадров                           : 1200,000 кадров/сек (40 SPF)
Метод сжатия                             : Без потерь
Размер потока                            : 6,09 Гбайт (54%)
Язык                                     : English
Default                                  : Да
Forced                                   : Нет
Number of dynamic objects                : 13
Bed channel count                        : 1 канал
Bed channel configuration                : LFE
Аудио #4
Идентификатор                            : 5
Формат                                   : AC-3
Формат/Информация                        : Audio Coding 3
Коммерческое название                    : Dolby Digital
Идентификатор кодека                     : A_AC3
Продолжительность                        : 1 ч. 43 м.
Вид битрейта                             : Постоянный
Битрейт                                  : 640 Кбит/сек
Каналы                                   : 6 каналов
Channel layout                           : L R C LFE Ls Rs
Частота                                  : 48,0 КГц
Частота кадров                           : 31,250 кадров/сек (1536 SPF)
Битовая глубина                          : 16 бит
Метод сжатия                             : С потерями
Размер потока                            : 473 Мбайт (4%)
Язык                                     : English
ServiceKind/String                       : Complete Main
Default                                  : Нет
Forced                                   : Нет
Текст #1
Идентификатор                            : 6
Формат                                   : UTF-8
Идентификатор кодека                     : S_TEXT/UTF8
Идентификатор кодека/Информация          : UTF-8 Plain Text
Продолжительность                        : 1 ч. 29 м.
Битрейт                                  : 85 бит/сек
ElementCount                             : 1231
Размер потока                            : 56,4 Кбайт (0%)
Заголовок                                : Full
Язык                                     : Russian
Default                                  : Нет
Forced                                   : Нет
Текст #2
Идентификатор                            : 7
Формат                                   : PGS
Режим смешивания                         : zlib
Идентификатор кодека                     : S_HDMV/PGS
Идентификатор кодека/Информация          : Picture based subtitle format used on BDs/HD-DVDs
Продолжительность                        : 1 ч. 43 м.
Битрейт                                  : 15,4 Кбит/сек
ElementCount                             : 3878
Размер потока                            : 11,4 Мбайт (0%)
Заголовок                                : SDH
Язык                                     : English
Default                                  : Да
Forced                                   : Нет
Текст #3
Идентификатор                            : 8
Формат                                   : UTF-8
Идентификатор кодека                     : S_TEXT/UTF8
Идентификатор кодека/Информация          : UTF-8 Plain Text
Продолжительность                        : 1 ч. 41 м.
Битрейт                                  : 72 бит/сек
ElementCount                             : 1312
Размер потока                            : 53,9 Кбайт (0%)
Заголовок                                : Full
Язык                                     : Russian
Default                                  : Нет
Forced                                   : Нет
Текст #4
Идентификатор                            : 9
Формат                                   : UTF-8
Идентификатор кодека                     : S_TEXT/UTF8
Идентификатор кодека/Информация          : UTF-8 Plain Text
Продолжительность                        : 1 ч. 42 м.
Битрейт                                  : 95 бит/сек
ElementCount                             : 1810
Размер потока                            : 71,6 Кбайт (0%)
Заголовок                                : SDH
Язык                                     : Russian
Default                                  : Нет
Forced                                   : Нет
Текст #5
Идентификатор                            : 10
Формат                                   : UTF-8
Идентификатор кодека                     : S_TEXT/UTF8
Идентификатор кодека/Информация          : UTF-8 Plain Text
Продолжительность                        : 1 ч. 41 м.
Битрейт                                  : 56 бит/сек
ElementCount                             : 1560
Размер потока                            : 42,0 Кбайт (0%)
Заголовок                                : Full
Язык                                     : English
Default                                  : Нет
Forced                                   : Нет
Текст #6
Идентификатор                            : 11
Формат                                   : UTF-8
Идентификатор кодека                     : S_TEXT/UTF8
Идентификатор кодека/Информация          : UTF-8 Plain Text
Продолжительность                        : 1 ч. 42 м.
Битрейт                                  : 68 бит/сек
ElementCount                             : 1930
Размер потока                            : 51,2 Кбайт (0%)
Заголовок                                : SDH
Язык                                     : English
Default                                  : Нет
Forced                                   : Нет
Меню
00:00:00.000                             : en:Chapter 1
00:05:42.592                             : en:Chapter 2
00:08:27.716                             : en:Chapter 3
00:15:01.400                             : en:Chapter 4
00:16:29.655                             : en:Chapter 5
00:21:25.117                             : en:Chapter 6
00:25:45.252                             : en:Chapter 7
00:29:08.914                             : en:Chapter 8
00:33:45.023                             : en:Chapter 9
00:40:27.216                             : en:Chapter 10
00:44:37.925                             : en:Chapter 11
00:47:42.318                             : en:Chapter 12
00:53:04.515                             : en:Chapter 13
00:55:27.241                             : en:Chapter 14
01:02:36.711                             : en:Chapter 15
01:09:57.527                             : en:Chapter 16
01:13:48.382                             : en:Chapter 17
01:19:26.637                             : en:Chapter 18
01:24:28.146                             : en:Chapter 19
01:31:17.263                             : en:Chapter 20

Скриншоты

[Цитировать]



Показать сообщения:    

Текущее время: 28-Фев 02:32

Часовой пояс: UTC + 6


Вы не можете начинать темы
Вы не можете отвечать на сообщения
Вы не можете редактировать свои сообщения
Вы не можете удалять свои сообщения
Вы не можете голосовать в опросах
Вы не можете прикреплять файлы к сообщениям
Вы не можете скачивать файлы

!ВНИМАНИЕ!
Сайт не предоставляет электронные версии произведений, а занимается лишь коллекционированием и каталогизацией ссылок, присылаемых и публикуемых на форуме нашими читателями. Если вы являетесь правообладателем какого-либо представленного материала и не желаете, чтобы ссылка на него находилась в нашем каталоге, свяжитесь с нами, и мы незамедлительно удалим ее. Файлы для обмена на трекере предоставлены пользователями сайта, и администрация не несет ответственности за их содержание. Просьба не заливать файлы, защищенные авторскими правами, а также файлы нелегального содержания!