***Уважаемые пользователи и гости !!! Сайт переехал на новый домен Torrents-club.info. Просьба изменить ваши закладки! ***
 
[ Сегодня идет свободное скачивание без начисления Download ]


Статистика раздачи
Нет
 
   
 
 
 
 
Информация о фильме
Название: 21 мост
Оригинальное название: 21 Bridges
Год выпуска: 2019
Жанр: Боевик, триллер, драма, криминал
Режиссер: Брайан Кирк
В ролях: Чэдвик Боузмэн, Сиенна Миллер, Тейлор Китч, Дж.К. Симмонс, Стэфан Джеймс, Кит Дэвид, Александр Сиддиг, Луис Канселми, Виктория Картахена, Гари Карр
О фильме:
Он охотится на преступников, которые совершили на Манхэттене дерзкое ограбление, оставив после себя 8 мертвых полицейских. А продажные копы тем временем охотятся на него, пытаясь подставить. Но преступникам не скрыться, так как первый раз в истории Нью-Йорка полиция перекрыла все выходы с острова, в том числе 21 мост.

Страна: США, AGBO
Студия: Huayi Brothers, MWM Studios
Продолжительность: 01:39:56
Перевод: Дублированный | iTunes
Файл
Формат: MKV
Качество: BDRip-AVC
Источник: |21.Bridges.2019.BDREMUX.1080p.seleZen|
Видео: 720x302 (2.40:1), 23.976 fps, h.264 ~978 kbps avg, 0.188 bit/pixel
Звук: 48 kHz, HE-AAC, 2 ch, ~64 kbps avg
Субтитры: Английские

MediaInfo:

General
Unique ID : 157570706537681283824327106532351381882 (0x768B03A3214C911EFDA2CEA4CE43917A)
Complete name : D:OlLanDGroupiTunes21.Bridges.2019.BDRip(AVC).746Mb.OlLanDGroup.mkv
Format : Matroska
Format version : Version 4
File size : 746 MiB
Duration : 1 h 39 min
Overall bit rate : 1 044 kb/s
Movie name : 21.Bridges.2019.BDRip(AVC).746Mb.OlLanDGroup#Skandar#
Encoded date : UTC 2020-02-14 05:31:17
Writing application : mkvmerge v31.0.0 ('Dolores In A Shoestand') 64-bit
Writing library : libebml v1.3.6 + libmatroska v1.4.9
Video
ID : 1
Format : AVC
Format/Info : Advanced Video Codec
Format profile : High@L4.1
Format settings : CABAC / 10 Ref Frames
Format settings, CABAC : Yes
Format settings, ReFrames : 10 frames
Codec ID : V_MPEG4/ISO/AVC
Duration : 1 h 39 min
Bit rate : 978 kb/s
Width : 720 pixels
Height : 302 pixels
Display aspect ratio : 2.40:1
Frame rate mode : Constant
Frame rate : 23.976 (24000/1001) FPS
Color space : YUV
Chroma subsampling : 4:2:0
Bit depth : 8 bits
Scan type : Progressive
Bits/(Pixel*Frame) : 0.188
Stream size : 699 MiB (94%)
Title : 21.Bridges.2019.BDRip(AVC).746Mb.OlLanDGroup#Skandar#
Writing library : x264 core 146 r2538 121396c
Encoding settings : cabac=1 / ref=10 / deblock=1:-3:-3 / analyse=0x3:0x133 / me=umh / subme=11 / psy=1 / psy_rd=0.97:0.05 / mixed_ref=1 / me_range=48 / chroma_me=1 / trellis=2 / 8x8dct=1 / cqm=0 / deadzone=21,11 / fast_pskip=0 / chroma_qp_offset=-3 / threads=6 / lookahead_threads=1 / sliced_threads=0 / nr=0 / decimate=0 / interlaced=0 / bluray_compat=0 / constrained_intra=0 / bframes=11 / b_pyramid=2 / b_adapt=2 / b_bias=0 / direct=3 / weightb=1 / open_gop=0 / weightp=2 / keyint=240 / keyint_min=23 / scenecut=40 / intra_refresh=0 / rc_lookahead=40 / rc=2pass / mbtree=0 / bitrate=978 / ratetol=1.0 / qcomp=0.60 / qpmin=0 / qpmax=69 / qpstep=4 / cplxblur=20.0 / qblur=0.5 / vbv_maxrate=50000 / vbv_bufsize=62500 / nal_hrd=none / filler=0 / ip_ratio=1.40 / pb_ratio=1.30 / aq=1:1.00
Language : English
Default : Yes
Forced : No
Audio
ID : 2
Format : AAC LC SBR
Format/Info : Advanced Audio Codec Low Complexity with Spectral Band Replication
Commercial name : HE-AAC
Format settings : Explicit
Codec ID : A_AAC-2
Duration : 1 h 39 min
Bit rate : 64.0 kb/s
Channel(s) : 2 channels
Channel layout : L R
Sampling rate : 48.0 kHz
Frame rate : 23.438 FPS (2048 SPF)
Compression mode : Lossy
Delay relative to video : 31 ms
Stream size : 45.8 MiB (6%)
Title : Dub | iTunes
Language : Russian
Default : Yes
Forced : No
Text #1
ID : 3
Format : UTF-8
Codec ID : S_TEXT/UTF8
Codec ID/Info : UTF-8 Plain Text
Duration : 1 h 29 min
Bit rate : 52 b/s
Count of elements : 1116
Stream size : 34.5 KiB (0%)
Title : Full
Language : English
Default : No
Forced : No
Text #2
ID : 4
Format : UTF-8
Codec ID : S_TEXT/UTF8
Codec ID/Info : UTF-8 Plain Text
Duration : 1 h 30 min
Bit rate : 56 b/s
Count of elements : 1249
Stream size : 37.6 KiB (0%)
Title : SDH
Language : English
Default : No
Forced : No
Menu
00:00:00.000 : :Chapter 01
00:03:16.196 : :Chapter 02
00:07:48.510 : :Chapter 03
00:11:59.344 : :Chapter 04
00:16:54.722 : :Chapter 05
00:22:33.143 : :Chapter 06
00:30:54.561 : :Chapter 07
00:34:50.046 : :Chapter 08
00:40:16.414 : :Chapter 09
00:44:39.719 : :Chapter 10
00:50:54.718 : :Chapter 11
00:54:04.408 : :Chapter 12
00:58:52.320 : :Chapter 13
01:02:08.600 : :Chapter 14
01:06:19.601 : :Chapter 15
01:10:27.557 : :Chapter 16
01:16:19.617 : :Chapter 17
01:19:19.755 : :Chapter 18
01:25:15.110 : :Chapter 19
01:32:34.382 : :Chapter 20

Скриншоты


Релиз от:

[Цитировать]



Показать сообщения:    

Текущее время: 19-Сен 02:24

Часовой пояс: UTC + 6


Вы не можете начинать темы
Вы не можете отвечать на сообщения
Вы не можете редактировать свои сообщения
Вы не можете удалять свои сообщения
Вы не можете голосовать в опросах
Вы не можете прикреплять файлы к сообщениям
Вы не можете скачивать файлы

!ВНИМАНИЕ!
Сайт не предоставляет электронные версии произведений, а занимается лишь коллекционированием и каталогизацией ссылок, присылаемых и публикуемых на форуме нашими читателями. Если вы являетесь правообладателем какого-либо представленного материала и не желаете, чтобы ссылка на него находилась в нашем каталоге, свяжитесь с нами, и мы незамедлительно удалим ее. Файлы для обмена на трекере предоставлены пользователями сайта, и администрация не несет ответственности за их содержание. Просьба не заливать файлы, защищенные авторскими правами, а также файлы нелегального содержания!