***Уважаемые пользователи и гости !!! Сайт переехал на новый домен Torrents-club.info. Просьба изменить ваши закладки! ***
 
[ Сегодня идет свободное скачивание без начисления Download ]


Статистика раздачи
Скачал: [ 1 ]
 
   
 
 
 
 
Приключения капитана Врунгеля (1976-1979) Название: Приключения капитана Врунгеля
Жанр: Мультсериал, музыкальный, детский, экранизация, приключения
Выпущено: СССР, Киевнаучфильм
Режиссёр: Давид Черкасский
Продолжительность: 02:07:34
Год выпуска: 1976-1979
Роли озвучивали: Зиновий Гердт (Врунгель), Евгений Паперный (Лом, Шеф, директор зоопарка, репортёр, член яхт-клуба), Георгий Кишко (Фукс, таможенный чиновник, почтальон, репортёр, член яхт-клуба), Григорий Шпигель (Агент 00X), Семён Фарада (Джулико Бандитто), Александр Бурмистров (Де Ля Воро Гангстеритто, директор театра, член яхт-клуба), Эдуард Назаров (Капитан "Чёрной Каракатицы"), Вениамин Смехов (Адмирал)
Описание:
Музыкальный мультсериал (13 серий) по одноименной повести А. Некрасова о веселом и отважном капитане Врунгеле. Готовилась кругосветная морская регата. Знаменитые капитаны всего мира получили приглашение участвовать в небывалом соревновании. Самые крупные ставки сделаны на яхту капитана Врунгеля «Беда» и иностранную «Черную Каракатицу». А в это же самое время в Королевском музее искусств совершается «Похищение века» – украдена статуя Венеры. По указанию Шефа гангстеров вор Фукс должен пронести ее на «Черную Каракатицу». Но капитан Врунгель зачислил Фукса матросом на «Беду»… Гангстеры Джулико Бандитто и де ля Воро Гангстеритто, ни о чем не подозревая, отправились встречать «товар». Расследовать дело поручено суперагенту Ноль Ноль Икс.

Файл
Кодек: x264
Качество: BDRip 720p
Видео: AVC, 1024x720, 3800 Kbps, 24 fps
Аудио: AAC, 48 KHz, 2 ch, 192 Kbps
Примечание: Раздача выполнена в виде единого файла разбитого на главы по числу серий. Титры в конце серий вырезаны за исключением последней. В конце каждой главы произведено затухание громкости звуковой дорожки. В начале десятой серии устранён рассинхрон, в том месте где гангстер втыкает ледоруб в айсберг.

Скриншоты



Медиаинфо

Общее
Уникальный идентификатор : 120141620883884539625189204436706279640 (0x5A626F3CE2053C555746FA9F59D240D8)
Полное имя : D:ХранилищеВидеоКапитан ВрунгельKapitan.Vrungel.BDRip.720p.mkv
Формат : Matroska
Версия формата : Version 4
Размер файла : 3,56 Гбайт
Продолжительность : 2 ч. 7 м.
Общий поток : 3995 Кбит/сек
Дата кодирования : UTC 2018-11-01 16:49:15
Программа кодирования : mkvmerge v28.1.0 ('Morning Child') 64-bit
Библиотека кодирования : libebml v1.3.6 + libmatroska v1.4.9
Обложка : Yes
Attachments : cover.jpg
Видео
Идентификатор : 1
Формат : AVC
Формат/Информация : Advanced Video Codec
Профиль формата : High@L4
Настройки формата : CABAC / 9 Ref Frames
Параметр CABAC формата : Да
Параметр RefFrames формата : 9 кадров
Идентификатор кодека : V_MPEG4/ISO/AVC
Продолжительность : 2 ч. 7 м.
Битрейт : 3800 Кбит/сек
Ширина : 1024 пикселя
Высота : 720 пикселей
Соотношение сторон : 1,422
Режим частоты кадров : Постоянный
Частота кадров : 24,000 кадра/сек
Цветовое пространство : YUV
Субдискретизация насыщенности : 4:2:0
Битовая глубина : 8 бит
Тип развёртки : Прогрессивная
Бит/(Пиксели*Кадры) : 0.215
Размер потока : 3,39 Гбайт (95%)
Библиотека кодирования : x264 core 155 r2901 7d0ff22
Настройки программы : cabac=1 / ref=9 / deblock=1:-2:-2 / analyse=0x3:0x133 / me=esa / subme=11 / psy=1 / psy_rd=1.00:0.00 / mixed_ref=1 / me_range=32 / chroma_me=1 / trellis=2 / 8x8dct=1 / cqm=0 / deadzone=21,11 / fast_pskip=0 / chroma_qp_offset=-2 / threads=18 / lookahead_threads=1 / sliced_threads=0 / nr=0 / decimate=1 / interlaced=0 / bluray_compat=0 / constrained_intra=0 / bframes=3 / b_pyramid=2 / b_adapt=2 / b_bias=0 / direct=3 / weightb=1 / open_gop=0 / weightp=2 / keyint=250 / keyint_min=25 / scenecut=40 / intra_refresh=0 / rc_lookahead=100 / rc=2pass / mbtree=1 / bitrate=3800 / ratetol=4.0 / qcomp=0.70 / qpmin=0 / qpmax=51 / qpstep=4 / cplxblur=20.0 / qblur=0.5 / vbv_maxrate=25000 / vbv_bufsize=31250 / nal_hrd=none / filler=0 / ip_ratio=1.40 / aq=1:0.90
Default : Да
Forced : Нет
Аудио
Идентификатор : 2
Формат : AAC LC
Формат/Информация : Advanced Audio Codec Low Complexity
Идентификатор кодека : A_AAC-2
Продолжительность : 2 ч. 7 м.
Битрейт : 192 Кбит/сек
Каналы : 2 канала
Channel layout : L R
Частота : 48,0 КГц
Частота кадров : 46,875 кадров/сек (1024 SPF)
Метод сжатия : С потерями
Размер потока : 175 Мбайт (5%)
Язык : Russian
Default : Да
Forced : Нет
Меню
00:00:00.000 : ru:01 серия
00:10:00.375 : ru:02 серия
00:19:32.417 : ru:03 серия
00:28:56.375 : ru:04 серия
00:39:01.167 : ru:05 серия
00:48:08.542 : ru:06 серия
00:57:53.708 : ru:07 серия
01:07:54.542 : ru:08 серия
01:17:52.708 : ru:09 серия
01:27:33.667 : ru:10 серия
01:37:38.792 : ru:11 серия
01:47:10.000 : ru:12 серия
01:56:59.750 : ru:13 серия
Релиз от:
-

[Цитировать]



Показать сообщения:    

Текущее время: 05-Мар 21:42

Часовой пояс: UTC + 6


Вы не можете начинать темы
Вы не можете отвечать на сообщения
Вы не можете редактировать свои сообщения
Вы не можете удалять свои сообщения
Вы не можете голосовать в опросах
Вы не можете прикреплять файлы к сообщениям
Вы не можете скачивать файлы

!ВНИМАНИЕ!
Сайт не предоставляет электронные версии произведений, а занимается лишь коллекционированием и каталогизацией ссылок, присылаемых и публикуемых на форуме нашими читателями. Если вы являетесь правообладателем какого-либо представленного материала и не желаете, чтобы ссылка на него находилась в нашем каталоге, свяжитесь с нами, и мы незамедлительно удалим ее. Файлы для обмена на трекере предоставлены пользователями сайта, и администрация не несет ответственности за их содержание. Просьба не заливать файлы, защищенные авторскими правами, а также файлы нелегального содержания!