***Уважаемые пользователи и гости !!! Сайт переехал на новый домен Torrents-club.info. Просьба изменить ваши закладки! ***
 
[ Сегодня идет свободное скачивание без начисления Download ]


Статистика раздачи
Скачал: [ 1 ]
 
   
 
 
 
 
Стрекоза / Dragonfly Информация о фильме
Название: Стрекоза
Оригинальное название: Dragonfly
Год выхода: 2002
Жанр: Фэнтези, Триллер, Драма, Мелодрама, Детектив
Режиссер: Том Шэдьяк
В ролях: Кевин Костнер, Сюзанна Томпсон, Джо Мортон, Рон Рифкин, Кэти Бейтс, Роберт Бэйли мл., Джейкоб Смит, Джей Томас, Лиза Бейнс, Мэтт Крэйвен
О фильме:
После трагической гибели в горах Венесуэлы доктора Эмили Дэрроу в жизни её мужа Джо, работавшего с ней в одной больнице, начинают происходить необъяснимые события. Больные дети, которых лечила Эмили, утверждают, что она является им в видениях, пытаясь сообщить что-то важное. Загадочные знаки и пугающие послания неотступно преследуют Джо, и вскоре он убеждает себя, что сумеет разгадать их тайный смысл, только если отправится туда, где его жена рассталась с жизнью…

Страна: США, Германия
Студия: Gran Via, Kalima Productions GmbH & Co. KG, NDE Productions, Shady Acres Entertainment, Spyglass Entertainment, Universal Pictures
Продолжительность: 01:44:08
Перевод: Дублированный
Субтитры: Russian, English
Файл
Формат: Matroska
Качество: WEB-DLRip-AVC | [1080p.WEB-DL.DD+5.1.H.264-SpaceHD13]
Видео: 1024x576 at 23.976 fps, x264, ~2546 kbps
Аудио: AC3, 6 ch, ~448 kbps - | Русский | -
Формат субтитров: softsub (SRT)
***Релиз от: -=DoMiNo=-

M/I

x264 info: frame I:481 Avg QP:17.86 size: 59277
x264 info: frame P:18539 Avg QP:19.28 size: 25804
x264 info: frame B:59833 Avg QP:21.48 size: 8825
x264 info: consecutive B-frames: 3.3% 5.1% 6.9% 20.6% 16.0% 38.8% 4.6% 2.4% 1.4% 0.6% 0.1% 0.1% 0.3%
General
Unique ID : 32369705275182064589913540496885585085 (0x185A2DB014F6124A1F4818EF9BE094BD)
Complete name : Стрекоза.(2002).WEB-DLRip-AVC.F.S.[-=DoMiNo=-].mkv
Format : Matroska
Format version : Version 4
File size : 2.16 GiB
Duration : 1 h 44 min
Overall bit rate : 2 964 kb/s
Movie name : Стрекоза / Dragonfly (2002)
Encoded date : UTC 2019-06-18 19:46:13
Writing application : mkvmerge v34.0.0 ('Sight and Seen') 64-bit
Writing library : libebml v1.3.7 + libmatroska v1.5.0
Attachments : poster / poster
Video
ID : 1
Format : AVC
Format/Info : Advanced Video Codec
Format profile : High@L4.1
Format settings : CABAC / 14 Ref Frames
Format settings, CABAC : Yes
Format settings, Reference : 14 frames
Codec ID : V_MPEG4/ISO/AVC
Duration : 1 h 44 min
Bit rate : 2 546 kb/s
Width : 1 024 pixels
Height : 576 pixels
Display aspect ratio : 16:9
Frame rate mode : Constant
Frame rate : 23.976 (24000/1001) FPS
Color space : YUV
Chroma subsampling : 4:2:0
Bit depth : 8 bits
Scan type : Progressive
Bits/(Pixel*Frame) : 0.180
Stream size : 1.83 GiB (85%)
Title : RIP_BY_-=DoMiNo=-
Writing library : x264 core 157 r2969 d4099dd
Encoding settings : cabac=1 / ref=14 / deblock=1:-3:-3 / analyse=0x3:0x133 / me=umh / subme=11 / psy=1 / psy_rd=1.00:0.25 / mixed_ref=1 / me_range=56 / chroma_me=1 / trellis=2 / 8x8dct=1 / cqm=0 / deadzone=21,11 / fast_pskip=0 / chroma_qp_offset=-4 / threads=6 / lookahead_threads=1 / sliced_threads=0 / nr=0 / decimate=0 / interlaced=0 / bluray_compat=0 / constrained_intra=0 / bframes=12 / b_pyramid=2 / b_adapt=2 / b_bias=0 / direct=3 / weightb=1 / open_gop=0 / weightp=2 / keyint=250 / keyint_min=23 / scenecut=40 / intra_refresh=0 / rc=2pass / mbtree=0 / bitrate=2546 / ratetol=1.0 / qcomp=0.80 / qpmin=0 / qpmax=69 / qpstep=4 / cplxblur=20.0 / qblur=0.5 / ip_ratio=1.40 / pb_ratio=1.30 / aq=3:0.65
Language : English
Default : Yes
Forced : No
Color range : Limited
Color primaries : BT.709
Transfer characteristics : BT.709
Matrix coefficients : BT.709
Audio
ID : 2
Format : AC-3
Format/Info : Audio Coding 3
Commercial name : Dolby Digital
Codec ID : A_AC3
Duration : 1 h 44 min
Bit rate mode : Constant
Bit rate : 448 kb/s
Channel(s) : 6 channels
Channel layout : L R C LFE Ls Rs
Sampling rate : 48.0 kHz
Frame rate : 31.250 FPS (1536 SPF)
Bit depth : 16 bits
Compression mode : Lossy
Stream size : 334 MiB (15%)
Title : Дублированный
Language : Russian
Service kind : Complete Main
Default : Yes
Forced : No
Text #1
ID : 3
Format : UTF-8
Codec ID : S_TEXT/UTF8
Codec ID/Info : UTF-8 Plain Text
Duration : 1 h 36 min
Bit rate : 81 b/s
Count of elements : 940
Stream size : 57.5 KiB (0%)
Language : Russian
Default : No
Forced : No
Text #2
ID : 4
Format : UTF-8
Codec ID : S_TEXT/UTF8
Codec ID/Info : UTF-8 Plain Text
Duration : 1 h 42 min
Bit rate : 48 b/s
Count of elements : 1201
Stream size : 36.3 KiB (0%)
Language : English
Default : No
Forced : No
Menu
00:00:00.000 : en:Глава 01
00:07:30.000 : en:Глава 02
00:15:00.000 : en:Глава 03
00:22:30.000 : en:Глава 04
00:30:00.000 : en:Глава 05
00:37:30.000 : en:Глава 06
00:45:00.000 : en:Глава 07
00:52:30.000 : en:Глава 08
01:00:00.000 : en:Глава 09
01:07:30.000 : en:Глава 10
01:15:00.000 : en:Глава 11
01:22:30.000 : en:Глава 12
01:30:00.000 : en:Глава 13
01:37:30.000 : en:Глава 14

Скриншоты

[Цитировать]



Показать сообщения:    

Текущее время: 13-Апр 18:31

Часовой пояс: UTC + 6


Вы не можете начинать темы
Вы не можете отвечать на сообщения
Вы не можете редактировать свои сообщения
Вы не можете удалять свои сообщения
Вы не можете голосовать в опросах
Вы не можете прикреплять файлы к сообщениям
Вы не можете скачивать файлы

!ВНИМАНИЕ!
Сайт не предоставляет электронные версии произведений, а занимается лишь коллекционированием и каталогизацией ссылок, присылаемых и публикуемых на форуме нашими читателями. Если вы являетесь правообладателем какого-либо представленного материала и не желаете, чтобы ссылка на него находилась в нашем каталоге, свяжитесь с нами, и мы незамедлительно удалим ее. Файлы для обмена на трекере предоставлены пользователями сайта, и администрация не несет ответственности за их содержание. Просьба не заливать файлы, защищенные авторскими правами, а также файлы нелегального содержания!