***Уважаемые пользователи и гости !!! Сайт переехал на новый домен Torrents-club.info. Просьба изменить ваши закладки! ***
 
[ Сегодня идет свободное скачивание без начисления Download ]


Статистика раздачи
Скачал: [ 1 ]
 
   
 
 
 
 
Калифорнийские куколки / ... Все куколки / ...All the Marbles Информация о фильме
Название: Калифорнийские куколки / ... Все куколки
Оригинальное название: ...All the Marbles
Год выхода: 1981
Жанр: Драма, комедия, спорт
Режиссер: Роберт Олдрич
В ролях: Питер Фальк, Вики Фредерик, Лаурен Лэндон, Бёрт Янг, Урсалин Брайант, Клодетт Невинс, Ричард Джекил, Джон Хэнкок, Ленни Монтана, Чарли Делл, Чик Хирн, Клифф Эммич, Клайд Кусацу, Джо Грин, Уильям Дж. Кюльзер, Джонатан Терри, Элвин Хаммер, Анджела Амес, Стэнли Брок, Сьюзан Мешнер, Фэйт Минтон, Пол Гринвуд, Дон Броди, Леонард Бремен, Глория Хэйес, Перри Кук, Стив Уайт, Космо Сардо, Эрни Фуэнтес, Джонни Декер, Николас Шилдс, Сьюзан Барнс, Чак Хикс, Гари МакЛарти
О фильме:
Гарри - менеджер "Калифорнийских куколок", женской команды по рестлингу, которая без устали колесит по всей Америке. У Гарри складываются романтические отношения с одной из его подопечных. Со временем дела команды начинают идти все хуже, особенно после того, как Гарри соглашается на то, чтобы его девушки участвовали в "борьбе в грязи"...

Страна: США
Студия: Aldrich Company, Metro-Goldwyn-Mayer (MGM)
Продолжительность: 01:53:01
Перевод: Авторский (одноголосый закадровый) А. Дольский
Файл
Формат: MKV
Качество: DVDRip-AVC
Видео: MPEG-4 AVC, 704x396, - 845 Кбит/с
Аудио: AAC-HE, 2 ch, - 76 Кбит/с
Субтитры: Нет

MI

Общее
Уникальный идентификатор : 140003966111193019173088356407669803310 (0x6953C8770E5DF83137362E21623DC92E)
Полное имя : D:MOVIESAll.the.Marbles.1981.DVDRip-AVC.ExKinoRay.mkv
Формат : Matroska
Версия формата : Version 4 / Version 2
Размер файла : 746 Мбайт
Продолжительность : 1 ч. 53 м.
Общий поток : 923 Кбит/сек
Дата кодирования : UTC 2020-03-09 13:59:16
Программа кодирования : mkvmerge v35.0.0 ('All The Love In The World') 64-bit
Библиотека кодирования : libebml v1.3.9 + libmatroska v1.5.2
Видео
Идентификатор : 1
Формат : AVC
Формат/Информация : Advanced Video Codec
Профиль формата : High@L4.1
Параметр CABAC формата : Да
Параметр RefFrames формата : 12 кадров
Идентификатор кодека : V_MPEG4/ISO/AVC
Продолжительность : 1 ч. 53 м.
Битрейт : 845 Кбит/сек
Ширина : 704 пикселя
Высота : 396 пикселей
Соотношение сторон : 16:9
Режим частоты кадров : Постоянный
Частота кадров : 23,976 (24000/1001) кадра/сек
Цветовое пространство : YUV
Субдискретизация насыщенности : 4:2:0
Битовая глубина : 8 бит
Тип развёртки : Прогрессивная
Бит/(Пиксели*Кадры) : 0.126
Размер потока : 683 Мбайт (92%)
Библиотека кодирования : x264 core 159 r2991 1771b55
Настройки программы : cabac=1 / ref=12 / deblock=1:-3:-3 / analyse=0x3:0x133 / me=umh / subme=11 / psy=1 / psy_rd=1.00:0.14 / mixed_ref=1 / me_range=32 / chroma_me=1 / trellis=2 / 8x8dct=1 / cqm=0 / deadzone=21,11 / fast_pskip=0 / chroma_qp_offset=-3 / threads=6 / lookahead_threads=1 / sliced_threads=0 / nr=0 / decimate=0 / interlaced=0 / bluray_compat=0 / constrained_intra=0 / bframes=12 / b_pyramid=2 / b_adapt=2 / b_bias=0 / direct=3 / weightb=1 / open_gop=0 / weightp=2 / keyint=240 / keyint_min=24 / scenecut=40 / intra_refresh=0 / rc=2pass / mbtree=0 / bitrate=845 / ratetol=1.0 / qcomp=0.60 / qpmin=0 / qpmax=69 / qpstep=4 / cplxblur=20.0 / qblur=0.5 / ip_ratio=1.40 / pb_ratio=1.30 / aq=1:1.00
Default : Да
Forced : Нет
Аудио
Идентификатор : 2
Формат : AAC
Формат/Информация : Advanced Audio Codec
Профиль формата : HE-AAC / LC
Идентификатор кодека : A_AAC
Продолжительность : 1 ч. 53 м.
Битрейт : 76,0 Кбит/сек
Каналы : 2 канала
Расположение каналов : Front: L R
Частота : 48,0 КГц / 24,0 КГц
Частота кадров : 23,438 кадра/сек (1024 SPF)
Метод сжатия : С потерями
Задержка видео : 31 мс.
Размер потока : 61,4 Мбайт (8%)
Default : Да
Forced : Нет
Меню
00:00:00.000 : en:Chapter 01
00:10:00.500 : en:Chapter 02
00:20:00.001 : en:Chapter 03
00:30:00.001 : en:Chapter 04
00:40:00.502 : en:Chapter 05
00:50:00.003 : en:Chapter 06
01:00:00.503 : en:Chapter 07
01:10:00.004 : en:Chapter 08
01:20:00.004 : en:Chapter 09
01:30:00.505 : en:Chapter 10
01:40:00.006 : en:Chapter 11
01:50:00.506 : en:Chapter 12

Скриншоты

[Цитировать]



Показать сообщения:    

Текущее время: 05-Мар 21:54

Часовой пояс: UTC + 6


Вы не можете начинать темы
Вы не можете отвечать на сообщения
Вы не можете редактировать свои сообщения
Вы не можете удалять свои сообщения
Вы не можете голосовать в опросах
Вы не можете прикреплять файлы к сообщениям
Вы не можете скачивать файлы

!ВНИМАНИЕ!
Сайт не предоставляет электронные версии произведений, а занимается лишь коллекционированием и каталогизацией ссылок, присылаемых и публикуемых на форуме нашими читателями. Если вы являетесь правообладателем какого-либо представленного материала и не желаете, чтобы ссылка на него находилась в нашем каталоге, свяжитесь с нами, и мы незамедлительно удалим ее. Файлы для обмена на трекере предоставлены пользователями сайта, и администрация не несет ответственности за их содержание. Просьба не заливать файлы, защищенные авторскими правами, а также файлы нелегального содержания!