***Уважаемые пользователи и гости !!! Сайт переехал на новый домен Torrents-club.info. Просьба изменить ваши закладки! ***
 
[ Сегодня идет свободное скачивание без начисления Download ]


Статистика раздачи
Нет
 
   
 
 
 
 
---- Страшные сказки: Город ангелов / Dreadful: City of Angels - [S0 1 х01-10 из 10] - Полный
Комплект
-- --Год выпуска: 2020
Выпущено: США , Desert Wolf Productions
Жанр: Ужасы, фэнтези, триллер, драма
Продолжительность: 01:08:00
Сезон:1
Серия:1-10
Количество серий в сезоне:10--Озвучка #1: Профессиональный многоголосый - Greb&Creative по заказу Amedia - Русский
Озвучка #2: Профессиональный многоголосый - AlexFilm - Русский
Озвучка #3: Профессиональный многоголосый - NewStudio - Русский
Озвучка #4: Профессиональный многоголосый - HDrezka Studio - Русский
Озвучка #5: Профессиональный многоголосый - LostFilm- Русский
Озвучка #6: Профессиональный многоголосый -Английский - Оригинал
Субтитры: Russian , English, English (SDH)
--Релиз Без Рекламы - Ненормативная лексика --MDB 6.2 --Режиссеры:
Пако Кабесас, Роксанн Доусон, Шери Фоксон--В ролях: Натали Дормер, Дэниэл Дзоватто, Адриана Барраса, Джессика Гарза, Джонатан Нивз, Рори Киннер, Натан Лэйн, Майкл Глэдис, Себастьян Чакон, Доминик Шервуд-- Действие сериала развернётся в 1938 году в Лос-Анджелесе во время серьёзных социальных и политических потрясений. Когда в городе случается жестокое убийство, за расследование принимаются детективы Тиаго Вега и Льюис Миченер, который в свободное время охотится за нацистами. Тем временем по городу бродит Магда - сверхъестественный демон, способный принимать обличье любой женщины. Когда жизнь Тиаго случайно пересекается с Магдой и могущественными силами, о существовании которых он даже не подозревал, детектив, а также его семья, оказываются в смертельной опасности.--Качество : -WEB-DLRip - HEVC 10bit - 1080p.
Формат: MKV
Видео кодек: H265
Видео: 4505Кбит/сек,1920х1080(16.9),в 23.976кадр/сек, HEVC (Main10@L5.1@Main)--Аудио Кодек:AC3
Аудио #1: MVO LostFilm @DD5.1 AC3, 384 Kbps, 48.0 KHz, 6 ch- LostFilm -Русский
Аудио #2: MVO AlexFilm @DD5.1 AC3, 384 Kbps, 48.0 KHz, 6 ch- AlexFilm -Русский
Аудио #3: MVO NewStudio @DD5.1 AC3, 384 Kbps, 48.0 KHz, 6 ch- NewStudio -Русский
Аудио #4: MVO HDrezka Studio @DD5.1 AC3, 384 Kbps, 48.0 KHz, 6 ch- HDrezka Studio
-Русский
Аудио #5: MVO Greb&Creative @DD5.1 AC3, 384 Kbps, 48.0 KHz, 6 ch- Greb&Creative по заказу Amedia -Русский
Аудио #6: Original@DD5.1 E-AC3 , 640 Kbps, 48.0 KHz, 6 ch - English - Оригинал--

Доп. информация:

Звуковая дорожка сделана путем наложения чистого голоса озвучивателей на центральный канал оригинальной дорожки. Качество идентично звуковой дорожке.
--

Список эпизодов сезона


1 сезон 1 серия - Санта Муэрте - Santa Muerte
1 сезон 2 серия - Мертвые всегда лежат - Dead People Lie Down
1 сезон 3 серия - Мир - порочный котел - Wicked Old World
1 сезон 4 серия - Хосефина и Святой Дух - Josefina and the Holy Spirit
1 сезон 5 серия - Дети бога Солнца - Children of the Royal Sun
1 сезон 6 серия - Брат всегда стоит за брата - How It Is with Brothers
1 сезон 7 серия - Мария и Чудовище - Maria and the Beast
1 сезон 8 серия - Кошки-мышки - Hide and Seek
1 сезон 9 серия - Пой, птичка, пой - Sing, Sing, Sing
1 сезон 10 серия - День мертвых - Day of the Dead
--

MediaInfo

Общее
Уникальный идентификатор : 142812287024973052867658940966577072796 (0x6B70A5604EA804251909B70AEDF36A9C)
Полное имя : E:\RussianPatriot\Страшные сказки Город ангелов - Penny Dreadful City of Angels\Penny.Dreadful.City.of.Angels_01_HEVC_DD5.1_N.B_HD_1080_5xRus_Eng\Penny.Dreadful.City.of.Angels_01E01_HEVC_DD5.1_N.B_HD_1080_5xRus_Eng.mkv
Формат : Matroska
Версия формата : Version 4
Размер файла : 3,36 Гбайт
Продолжительность : 1 ч. 7 м.
Общий поток : 7 068 Кбит/сек
Название фильма : Penny Dreadful City of Angels 2020 S01E01 @ Nikolai.Baranov & PIRATIYA
Дата кодирования : UTC 2020-05-07 19:08:17
Программа кодирования : mkvmerge v46.0.0 ('No Deeper Escape') 64-bit
Библиотека кодирования : libebml v1.3.10 + libmatroska v1.5.2
Видео
Идентификатор : 1
Формат : HEVC
Формат/Информация : High Efficiency Video Coding
Профиль формата : Main 10@L5.1@Main
Идентификатор кодека : V_MPEGH/ISO/HEVC
Продолжительность : 1 ч. 7 м.
Битрейт : 4 505 Кбит/сек
Ширина : 1 920 пикселей
Высота : 1 080 пикселей
Соотношение сторон : 16:9
Режим частоты кадров : Постоянный
Частота кадров : 23,976 (24000/1001) кадра/сек
Цветовое пространство : YUV
Субдискретизация насыщенности : 4:2:0
Битовая глубина : 10 бит
Бит/(Пиксели*Кадры) : 0.091
Размер потока : 2,14 Гбайт (64%)
Заголовок : Penny.Dreadful.City.of.Angels_01E01_HEVC_DD5.1_N.B_HD_1080_5xRus_Eng
Язык : Russian
Default : Да
Forced : Нет
Цветовой диапазон : Full
Основные цвета : BT.709
Характеристики трансфера : BT.709
Коэффициенты матрицы : BT.709
Аудио #1
Идентификатор : 3
Формат : AC-3
Формат/Информация : Audio Coding 3
Коммерческое название : Dolby Digital
Идентификатор кодека : A_AC3
Продолжительность : 1 ч. 7 м.
Вид битрейта : Постоянный
Битрейт : 384 Кбит/сек
Каналы : 6 каналов
Channel layout : L R C LFE Ls Rs
Частота : 48,0 КГц
Частота кадров : 31,250 кадров/сек (1536 SPF)
Метод сжатия : С потерями
Размер потока : 187 Мбайт (5%)
Заголовок : MVO LostFilm @DD5.1 AC3, 384 Kbps, 48.0 KHz, 6 ch
Язык : Russian
Service kind : Complete Main
Default : Да
Forced : Нет
Аудио #2
Идентификатор : 4
Формат : AC-3
Формат/Информация : Audio Coding 3
Коммерческое название : Dolby Digital
Идентификатор кодека : A_AC3
Продолжительность : 1 ч. 7 м.
Вид битрейта : Постоянный
Битрейт : 384 Кбит/сек
Каналы : 6 каналов
Channel layout : L R C LFE Ls Rs
Частота : 48,0 КГц
Частота кадров : 31,250 кадров/сек (1536 SPF)
Метод сжатия : С потерями
Размер потока : 187 Мбайт (5%)
Заголовок : MVO Greb&Creative @DD5.1 AC3, 384 Kbps, 48.0 KHz, 6 ch
Язык : Russian
Service kind : Complete Main
Default : Нет
Forced : Нет
Аудио #3
Идентификатор : 5
Формат : AC-3
Формат/Информация : Audio Coding 3
Коммерческое название : Dolby Digital
Идентификатор кодека : A_AC3
Продолжительность : 1 ч. 7 м.
Вид битрейта : Постоянный
Битрейт : 384 Кбит/сек
Каналы : 6 каналов
Channel layout : L R C LFE Ls Rs
Частота : 48,0 КГц
Частота кадров : 31,250 кадров/сек (1536 SPF)
Метод сжатия : С потерями
Размер потока : 187 Мбайт (5%)
Заголовок : MVO NewStudio @DD5.1 AC3, 384 Kbps, 48.0 KHz, 6 ch
Язык : Russian
Service kind : Complete Main
Default : Нет
Forced : Нет
Аудио #4
Идентификатор : 6
Формат : AC-3
Формат/Информация : Audio Coding 3
Коммерческое название : Dolby Digital
Идентификатор кодека : A_AC3
Продолжительность : 1 ч. 7 м.
Вид битрейта : Постоянный
Битрейт : 384 Кбит/сек
Каналы : 6 каналов
Channel layout : L R C LFE Ls Rs
Частота : 48,0 КГц
Частота кадров : 31,250 кадров/сек (1536 SPF)
Метод сжатия : С потерями
Размер потока : 187 Мбайт (5%)
Заголовок : MVO AlexFilm @DD5.1 AC3, 384 Kbps, 48.0 KHz, 6 ch
Язык : Russian
Service kind : Complete Main
Default : Нет
Forced : Нет
Аудио #5
Идентификатор : 7
Формат : AC-3
Формат/Информация : Audio Coding 3
Коммерческое название : Dolby Digital
Идентификатор кодека : A_AC3
Продолжительность : 1 ч. 7 м.
Вид битрейта : Постоянный
Битрейт : 384 Кбит/сек
Каналы : 6 каналов
Channel layout : L R C LFE Ls Rs
Частота : 48,0 КГц
Частота кадров : 31,250 кадров/сек (1536 SPF)
Метод сжатия : С потерями
Размер потока : 187 Мбайт (5%)
Заголовок : MVO HDRezka Studio @DD5.1 AC3, 384 Kbps, 48.0 KHz, 6 ch
Язык : Russian
Service kind : Complete Main
Default : Нет
Forced : Нет
Аудио #6
Идентификатор : 8
Формат : E-AC-3
Формат/Информация : Enhanced AC-3
Коммерческое название : Dolby Digital Plus
Идентификатор кодека : A_EAC3
Продолжительность : 1 ч. 7 м.
Вид битрейта : Постоянный
Битрейт : 640 Кбит/сек
Каналы : 6 каналов
Channel layout : L R C LFE Ls Rs
Частота : 48,0 КГц
Частота кадров : 31,250 кадров/сек (1536 SPF)
Метод сжатия : С потерями
Задержка видео : 18 мс.
Размер потока : 311 Мбайт (9%)
Заголовок : Original@DD5.1 E-AC3 , 640 Kbps, 48.0 KHz, 6 ch
Язык : English
Service kind : Complete Main
Default : Нет
Forced : Нет
Текст #1
Идентификатор : 2
Формат : UTF-8
Идентификатор кодека : S_TEXT/UTF8
Идентификатор кодека/Информация : UTF-8 Plain Text
Продолжительность : 1 ч. 5 м.
Битрейт : 78 бит/сек
Count of elements : 746
Размер потока : 37,5 Кбайт (0%)
Заголовок : Санта Муэрте-Russian
Язык : Russian
Default : Да
Forced : Нет
Текст #2
Идентификатор : 9
Формат : UTF-8
Идентификатор кодека : S_TEXT/UTF8
Идентификатор кодека/Информация : UTF-8 Plain Text
Продолжительность : 1 ч. 6 м.
Битрейт : 58 бит/сек
Count of elements : 1138
Размер потока : 28,5 Кбайт (0%)
Заголовок : Santa Muerte-Original - SDH
Язык : English
Default : Нет
Forced : Нет
Текст #3
Идентификатор : 10
Формат : UTF-8
Идентификатор кодека : S_TEXT/UTF8
Идентификатор кодека/Информация : UTF-8 Plain Text
Продолжительность : 1 ч. 5 м.
Битрейт : 47 бит/сек
Count of elements : 546
Размер потока : 22,9 Кбайт (0%)
Заголовок : Santa Muerte-Original
Язык : English
Default : Нет
Forced : Нет
Меню
00:00:00.000 : ru:Глава 01 / ru:Глава 01 / ru:Глава 01 / ru:Глава 01 / ru:Глава 01 / ru:Глава 01 / ru:Глава 01 / ru:Глава 01 / ru:Глава 01
--

Скриншоты

- 1-сезон.--

Как закачать отдельный файл

1. Открыть торрент
2. Снять галки с тех файлов торрента, которые мы не хотим закачивать. Оставляем только на нужных нам файлах (файле).
3. Нажать О.К.
В клиенте utorrent
Инструкция
1) Открыть торрент

2) Снять галки с тех файлов торрента, которые мы не хотим закачивать:
* либо вручную, снимая с каждого файла галку( скрин №1)
* либо, нажав кнопку "Снять метки (Select None)", сняв сразу со всех файлов(скрин №2)
№1

№2

Оставляем только на нужных нам файлах (файле).

3)Нажать О.К
--Внимание!!! 06.07. 2020. РАЗДАЧА ОБНОВЛЕНА. ДОБАВЛЕНА -10- СЕРИЯ Финал Сезона. ОБНОВИТЕ ТОРЕНТ ФАЙЛ. ПРИЯТНОГО ПРОСМОТРА . Поблагодарить:
ЯД: 410017546713876
--Релиз от: Nikolai.Baranov & PIRATIYA --Время раздачи : 24/7---

[Цитировать]



Показать сообщения:    

Текущее время: 13-Июл 10:50

Часовой пояс: UTC + 6


Вы не можете начинать темы
Вы не можете отвечать на сообщения
Вы не можете редактировать свои сообщения
Вы не можете удалять свои сообщения
Вы не можете голосовать в опросах
Вы не можете прикреплять файлы к сообщениям
Вы не можете скачивать файлы

!ВНИМАНИЕ!
Сайт не предоставляет электронные версии произведений, а занимается лишь коллекционированием и каталогизацией ссылок, присылаемых и публикуемых на форуме нашими читателями. Если вы являетесь правообладателем какого-либо представленного материала и не желаете, чтобы ссылка на него находилась в нашем каталоге, свяжитесь с нами, и мы незамедлительно удалим ее. Файлы для обмена на трекере предоставлены пользователями сайта, и администрация не несет ответственности за их содержание. Просьба не заливать файлы, защищенные авторскими правами, а также файлы нелегального содержания!