***Уважаемые пользователи и гости !!! Сайт переехал на новый домен Torrents-club.info. Просьба изменить ваши закладки! ***
 
[ Сегодня идет свободное скачивание без начисления Download ]


Статистика раздачи
Скачал: [ 2 ]
 
   
 
 
 
 
Королевство / The Kingdom Информация о фильме
Название: Королевство
Оригинальное название: The Kingdom
Год выхода: 2007
Жанр: Боевик, триллер
Режиссер: Питер Берг
В ролях: Джейми Фокс, Крис Купер, Дженнифер Гарнер, Джейсон Бейтман, Ашраф Бархом, Али Сулимэн, Джереми Пивен, Ричард Дженкинс, Тим МакГроу, Кайл Чандлер
О фильме:
Элитная команда агентов ФБР, которая отправлена в Саудовскую Аравию, чтобы расследовать обстоятельства чудовищного массового убийства, оказывается вовлеченной в погоню за убийцей, который в любой момент может снова нанести удар. Оказавшись лицом к лицу со смертью, под открытым огнем и в обстановке, когда никому нельзя доверять, команда вынуждена объединить усилия с представителями Саудовской Аравии. Когда столь непохожие союзники начинают расскрывать секреты страшного преступления, они сами становятся причиной шокирующей конфронтации на грани жизни и смерти.

Страна: США, Германия, ОАЭ
Выпущено: Universal Pictures, Relativity Media, Forward Pass
Продолжительность: 01:50:18
Перевод: Дубляж + Профессиональный многоголосый
Субтитры: Russian, English
Файл
Формат: Matroska
Качество: WEB-DLRip-AVC | Open Matte | Amazon *STARZ*
Видео: 1024x576 (16:9) at 23.976 fps, x264, ~2181 kbps, 0.154 bpp
Аудио #1: AC3, 6 ch, 448 Kbps - Русский (DUB)
Аудио #2: AC3, 2 ch, 192 Kbps - Русский (MVO Первый канал)
Формат субтитров: softsub (SRT)

M/I

x264 [info]: frame I:33 Avg QP:15.24 size: 74849
x264 [info]: frame P:651 Avg QP:19.01 size: 21015
x264 [info]: frame B:1851 Avg QP:20.24 size: 9729
General
Format : Matroska
Format version : Version 4
File size : 2.17 GiB
Duration : 1 h 50 min
Overall bit rate : 2 821 kb/s
Movie name : Королевство.(2007).WEB-DLRip-AVC.O.M.[-=DoMiNo=-]
Encoded date : UTC 2020-05-22 11:50:31
Writing application : mkvmerge v46.0.0 ('No Deeper Escape') 64-bit
Writing library : libebml v1.3.10 + libmatroska v1.5.2
Cover : Yes
Attachments : cover.jpg / cover 2.jpg
Video
ID : 1
Format : AVC
Format/Info : Advanced Video Codec
Format profile : High@L4.1
Format settings : CABAC / 12 Ref Frames
Format settings, CABAC : Yes
Format settings, Reference : 12 frames
Codec ID : V_MPEG4/ISO/AVC
Duration : 1 h 50 min
Bit rate : 2 181 kb/s
Width : 1 024 pixels
Height : 576 pixels
Display aspect ratio : 16:9
Frame rate mode : Constant
Frame rate : 23.976 (24000/1001) FPS
Color space : YUV
Chroma subsampling : 4:2:0
Bit depth : 8 bits
Scan type : Progressive
Bits/(Pixel*Frame) : 0.154
Stream size : 1.68 GiB (77%)
Title : RIP BY -=DoMiNo=- | Open Matte
Writing library : x264 core 160 r3000 33f9e14
Encoding settings : cabac=1 / ref=12 / deblock=1:-2:-2 / analyse=0x3:0x133 / me=umh / subme=10 / psy=1 / psy_rd=1.00:0.15 / mixed_ref=1 / me_range=32 / chroma_me=1 / trellis=2 / 8x8dct=1 / cqm=0 / deadzone=21,11 / fast_pskip=0 / chroma_qp_offset=-3 / threads=6 / lookahead_threads=1 / sliced_threads=0 / nr=0 / decimate=1 / interlaced=0 / bluray_compat=0 / constrained_intra=0 / bframes=8 / b_pyramid=2 / b_adapt=2 / b_bias=0 / direct=1 / weightb=1 / open_gop=0 / weightp=2 / keyint=250 / keyint_min=23 / scenecut=40 / intra_refresh=0 / rc_lookahead=60 / rc=crf / mbtree=1 / crf=19.0 / qcomp=0.60 / qpmin=0 / qpmax=69 / qpstep=4 / vbv_maxrate=50000 / vbv_bufsize=62500 / crf_max=0.0 / nal_hrd=none / filler=0 / ip_ratio=1.40 / aq=3:0.80
Language : English
Default : Yes
Forced : No
Color range : Limited
Color primaries : BT.709
Transfer characteristics : BT.709
Matrix coefficients : BT.709
Audio #1
ID : 2
Format : AC-3
Format/Info : Audio Coding 3
Commercial name : Dolby Digital
Codec ID : A_AC3
Duration : 1 h 50 min
Bit rate mode : Constant
Bit rate : 448 kb/s
Channel(s) : 6 channels
Channel layout : L R C LFE Ls Rs
Sampling rate : 48.0 kHz
Frame rate : 31.250 FPS (1536 SPF)
Compression mode : Lossy
Stream size : 353 MiB (16%)
Title : DUB
Language : Russian
Service kind : Complete Main
Default : Yes
Forced : No
Audio #2
ID : 3
Format : AC-3
Format/Info : Audio Coding 3
Commercial name : Dolby Digital
Codec ID : A_AC3
Duration : 1 h 50 min
Bit rate mode : Constant
Bit rate : 192 kb/s
Channel(s) : 2 channels
Channel layout : L R
Sampling rate : 48.0 kHz
Frame rate : 31.250 FPS (1536 SPF)
Compression mode : Lossy
Stream size : 151 MiB (7%)
Title : MVO Первый канал
Language : Russian
Service kind : Complete Main
Default : No
Forced : No
Text #1
ID : 4
Format : UTF-8
Codec ID : S_TEXT/UTF8
Codec ID/Info : UTF-8 Plain Text
Duration : 1 h 42 min
Bit rate : 103 b/s
Count of elements : 1120
Stream size : 77.9 KiB (0%)
Language : Russian
Default : No
Forced : No
Text #2
ID : 5
Format : UTF-8
Codec ID : S_TEXT/UTF8
Codec ID/Info : UTF-8 Plain Text
Duration : 1 h 43 min
Bit rate : 66 b/s
Count of elements : 1429
Stream size : 50.4 KiB (0%)
Title : SDH
Language : English
Default : No
Forced : No
Menu
00:00:00.000 : en:Глава 01
00:05:30.000 : en:Глава 02
00:11:00.000 : en:Глава 03
00:16:30.000 : en:Глава 04
00:22:00.000 : en:Глава 05
00:27:30.000 : en:Глава 06
00:33:00.000 : en:Глава 07
00:38:30.000 : en:Глава 08
00:44:00.000 : en:Глава 09
00:49:30.000 : en:Глава 10
00:55:00.000 : en:Глава 11
01:00:30.000 : en:Глава 12
01:06:00.000 : en:Глава 13
01:11:30.000 : en:Глава 14
01:17:00.000 : en:Глава 15
01:22:30.000 : en:Глава 16
01:28:00.000 : en:Глава 17
01:33:30.000 : en:Глава 18
01:39:00.000 : en:Глава 19
01:44:30.000 : en:Глава 20
01:50:00.000 : en:Глава 21

Примечание & Сравнения:

Исходник видео WEB-DL Amazon STARZ (периодически появляется логотип).
Open Matte-версия фильма имеет большее наполнение кадра по сравнению с Blu-ray.
***Сравнения => BD vs WEB-DL Open Matte

Скриншоты

[Цитировать]



Показать сообщения:    

Текущее время: 29-Май 10:45

Часовой пояс: UTC + 6


Вы не можете начинать темы
Вы не можете отвечать на сообщения
Вы не можете редактировать свои сообщения
Вы не можете удалять свои сообщения
Вы не можете голосовать в опросах
Вы не можете прикреплять файлы к сообщениям
Вы не можете скачивать файлы

!ВНИМАНИЕ!
Сайт не предоставляет электронные версии произведений, а занимается лишь коллекционированием и каталогизацией ссылок, присылаемых и публикуемых на форуме нашими читателями. Если вы являетесь правообладателем какого-либо представленного материала и не желаете, чтобы ссылка на него находилась в нашем каталоге, свяжитесь с нами, и мы незамедлительно удалим ее. Файлы для обмена на трекере предоставлены пользователями сайта, и администрация не несет ответственности за их содержание. Просьба не заливать файлы, защищенные авторскими правами, а также файлы нелегального содержания!