***Уважаемые пользователи и гости !!! Сайт переехал на новый домен Torrents-club.info. Просьба изменить ваши закладки! ***
 
[ Сегодня идет свободное скачивание без начисления Download ]


Статистика раздачи
Скачал: [ 2 ]
 
   
 
 
 
 
Королевство / The Kingdom Информация о фильме
Название: Королевство
Оригинальное название: The Kingdom
Год выхода: 2007
Жанр: Боевик, триллер, драма
Режиссер: Питер Берг
В ролях: Джейми Фокс, Крис Купер, Дженнифер Гарнер, Ури Гариэль, Ник Фальтас, Ясмин Ханнаней, Храч Титизиан, Мариеллен Авиано, Энтони Батарсе, Ник Хермз, Эйяд Элбитар, Сала Бэйкер, Джейсон Бейтман, Омар Бердони, Т. Дж. Бернетт, Ричард Дженкинс, Минка Келли, Ричард Клейн, Тим Макгроу, Келли Окоин, Джереми Пайвен, Джино Сальвано, Эшли Скотт, Мерик Тадрос, Броди М. Тарди, Хези Задик, Фрэнсис Фишер, Маркус Фланаган, Хоуп Фогли, Сара Ханли, Эми Хантер, Дэнни Хьюстон, Кайл Чандлер, Антонио Эванс, Ашраф Бархом, Али Сулиман, Анна Дивер Смит, Раад Рави, Махмуд Саид, Ахмед Б. Бадран, Том Брезнахан, Ясмин Ханани, Тревор Сент-Джон, Дэмиэн Фостер, Набил Корт, Кевин Бриф, Брайан Махони
О фильме:
Команда из нескольких высокопрофессиональных правительственных агентов под руководством Рональда Флэри отправляется в ближневосточный регион, чтобы расследовать там обстоятельства теракта на одном из американских объектов. Однако никакая тренировка не смогла подготовить агентов ко всем тем трудностям, что ждали их в этом специфическом и враждебно настроенном регионе.

Страна: США, Германия, ОАЭ
Выпущено: Universal Pictures, Relativity Media, Forward Pass
Продолжительность: 01:50:11
Перевод: Профессиональный (полное дублирование)
Файл
Формат: MKV
Качество: WEB-DLRip-AVC
Видео: MPEG-4 AVC, 672x378, - 868 Кбит/с
Аудио: AAC-HE, 2 ch, - 76 Кбит/с
Субтитры: Русские, английские

MI

Общее
Уникальный идентификатор : 258363357837669022413322164296764162299 (0xC25EF9056FAC254AA4E73AA8470500FB)
Полное имя : D:MOVIESThe.Kingdom.2007.WEB-DLRip-AVC.OM.ExKinoRay.mkv
Формат : Matroska
Версия формата : Version 4
Размер файла : 745 Мбайт
Продолжительность : 1 ч. 50 м.
Общий поток : 945 Кбит/сек
Дата кодирования : UTC 2020-05-22 13:22:11
Программа кодирования : mkvmerge v45.0.0 ('Heaven in Pennies') 64-bit
Библиотека кодирования : libebml v1.3.10 + libmatroska v1.5.2
Видео
Идентификатор : 1
Формат : AVC
Формат/Информация : Advanced Video Codec
Профиль формата : High@L4.1
Настройки формата : CABAC / 11 Ref Frames
Параметр CABAC формата : Да
Параметр RefFrames формата : 11 кадров
Идентификатор кодека : V_MPEG4/ISO/AVC
Продолжительность : 1 ч. 50 м.
Битрейт : 868 Кбит/сек
Ширина : 672 пикселя
Высота : 378 пикселей
Соотношение сторон : 16:9
Режим частоты кадров : Постоянный
Частота кадров : 23,976 (24000/1001) кадра/сек
Цветовое пространство : YUV
Субдискретизация насыщенности : 4:2:0
Битовая глубина : 8 бит
Тип развёртки : Прогрессивная
Бит/(Пиксели*Кадры) : 0.143
Размер потока : 684 Мбайт (92%)
Библиотека кодирования : x264 core 160 r3000 33f9e14
Настройки программы : cabac=1 / ref=11 / deblock=1:-3:-3 / analyse=0x3:0x133 / me=umh / subme=10 / psy=1 / psy_rd=1.05:0.15 / mixed_ref=1 / me_range=32 / chroma_me=1 / trellis=2 / 8x8dct=1 / cqm=0 / deadzone=21,11 / fast_pskip=0 / chroma_qp_offset=-3 / threads=6 / lookahead_threads=1 / sliced_threads=0 / nr=0 / decimate=0 / interlaced=0 / bluray_compat=0 / constrained_intra=0 / bframes=14 / b_pyramid=2 / b_adapt=2 / b_bias=0 / direct=3 / weightb=1 / open_gop=0 / weightp=2 / keyint=240 / keyint_min=23 / scenecut=40 / intra_refresh=0 / rc=2pass / mbtree=0 / bitrate=868 / ratetol=1.0 / qcomp=0.60 / qpmin=0 / qpmax=69 / qpstep=4 / cplxblur=20.0 / qblur=0.5 / ip_ratio=1.40 / pb_ratio=1.30 / aq=1:1.00
Default : Да
Forced : Нет
Цветовой диапазон : Limited
Основные цвета : BT.709
Характеристики трансфера : BT.709
Коэффициенты матрицы : BT.709
Аудио
Идентификатор : 2
Формат : AAC LC SBR
Формат/Информация : Advanced Audio Codec Low Complexity with Spectral Band Replication
Коммерческое название : HE-AAC
Настройки формата : Explicit
Идентификатор кодека : A_AAC-2
Продолжительность : 1 ч. 50 м.
Битрейт : 76,0 Кбит/сек
Каналы : 2 канала
Channel layout : L R
Частота : 48,0 КГц
Частота кадров : 23,438 кадра/сек (2048 SPF)
Метод сжатия : С потерями
Задержка видео : 31 мс.
Размер потока : 60,0 Мбайт (8%)
Default : Да
Forced : Нет
Текст #1
Идентификатор : 3
Формат : UTF-8
Идентификатор кодека : S_TEXT/UTF8
Идентификатор кодека/Информация : UTF-8 Plain Text
Продолжительность : 1 ч. 42 м.
Битрейт : 103 бит/сек
Count of elements : 1120
Размер потока : 77,9 Кбайт (0%)
Язык : Russian
Default : Нет
Forced : Нет
Текст #2
Идентификатор : 4
Формат : UTF-8
Идентификатор кодека : S_TEXT/UTF8
Идентификатор кодека/Информация : UTF-8 Plain Text
Продолжительность : 1 ч. 43 м.
Битрейт : 66 бит/сек
Count of elements : 1429
Размер потока : 50,4 Кбайт (0%)
Заголовок : SDH
Язык : English
Default : Нет
Forced : Нет

Скриншоты

[Цитировать]



Показать сообщения:    

Текущее время: 03-Июн 10:04

Часовой пояс: UTC + 6


Вы не можете начинать темы
Вы не можете отвечать на сообщения
Вы не можете редактировать свои сообщения
Вы не можете удалять свои сообщения
Вы не можете голосовать в опросах
Вы не можете прикреплять файлы к сообщениям
Вы не можете скачивать файлы

!ВНИМАНИЕ!
Сайт не предоставляет электронные версии произведений, а занимается лишь коллекционированием и каталогизацией ссылок, присылаемых и публикуемых на форуме нашими читателями. Если вы являетесь правообладателем какого-либо представленного материала и не желаете, чтобы ссылка на него находилась в нашем каталоге, свяжитесь с нами, и мы незамедлительно удалим ее. Файлы для обмена на трекере предоставлены пользователями сайта, и администрация не несет ответственности за их содержание. Просьба не заливать файлы, защищенные авторскими правами, а также файлы нелегального содержания!