***Уважаемые пользователи и гости !!! Сайт переехал на новый домен Torrents-club.info. Просьба изменить ваши закладки! ***
 
[ Сегодня идет свободное скачивание без начисления Download ]


Статистика раздачи
Скачал: [ 1 ]
 
   
 
 
 
 
Информация о фильме
Название: Перри Мэйсон
Оригинальное название: Perry Mason
Год выхода: 2020
Жанр: детектив, криминал
Режиссер: Тимоти Ван Паттен, Дениз Гамзе Эргювен
В ролях: Мэттью Риз, Татьяна Маслани, Джон Литгоу, Крис Чок, Шей Уигэм, Джульет Райлэнс, Лили Тейлор, Роберт Патрик, Стивен Рут, Эндрю Ховард
О фильме: Мини-сериал про легендарного американского детектива, спродюсированный Робертом Дауни-мл. Перри Мейсон — известный персонаж американской литературы, адвокат из Лос-Анджелеса, который практикует нестандартные способы защиты обвиняемых. В проекте от HBO его сыграл актер Мэттью Риз, звезда «Американцев». Сериал станет одновременно ребутом и переосмыслением персонажа Эрла Гарднера и расскажет про период Великой депрессии. В 1932 году Перри Мейсон, страдающий от воспоминаний о неудачном браке и ПТСР со времен Первой мировой войны, берется за одно из самых громких дел десятилетия.

Страна: США
Студия: Home Box Office (HBO), Team Downey
Продолжительность: ~00:54:00 серия
Перевод: Профессиональный (многоголосый, закадровый) Кравец-Рекордз по заказу Amedia
Файл
Качество: WEB-DL 1080p | Perry.Mason.2020.S01.1080p.AMZN.WEB-DL.DDP5.1.H.264-NTb
Формат: Matroska
Видео: 1920x1080 at 23.976 fps, MPEG-4 AVC, ~8800 kbps avg
Аудио#1: Russian: 48 kHz, AC3, 3/2 (L,C,R,l,r) + LFE ch, ~384 kbps avg |Многоголосый закадровый, Кравец-Рекордз по заказу Amedia|
Аудио#2: English: 48 kHz, E-AC3, 3/2 (L,C,R,l,r) + LFE ch, ~640 kbps avg
Субтитры: Russian (Forced, Full), English (SDH)
***Примечание: Без рекламы
***Релиз: marchelush@TeamHD

MediaInfo

Complete name : Perry.Mason.S01E01.1080p.AMZN.WEB-DL.Rus.Eng-NTb_THD.mkv
Format : Matroska
Format version : Version 4
File size : 3.98 GiB
Duration : 57 min 31 s
Overall bit rate : 9 899 kb/s
Movie name : Perry Mason (2020) [S01E01] - Release for TeamHD
Encoded date : UTC 2020-07-04 14:24:26
Writing application : mkvmerge v45.0.0 ('Heaven in Pennies') 64-bit
Writing library : libebml v1.3.10 + libmatroska v1.5.2
Video
ID : 1
Format : AVC
Format/Info : Advanced Video Codec
Format profile : High@L4
Format settings : CABAC / 4 Ref Frames
Format settings, CABAC : Yes
Format settings, Reference frames : 4 frames
Codec ID : V_MPEG4/ISO/AVC
Duration : 57 min 30 s
Bit rate mode : Constant
Bit rate : 8 882 kb/s
Nominal bit rate : 10 000 kb/s
Width : 1 920 pixels
Height : 1 080 pixels
Display aspect ratio : 16:9
Frame rate mode : Constant
Frame rate : 23.976 (24000/1001) FPS
Color space : YUV
Chroma subsampling : 4:2:0
Bit depth : 8 bits
Scan type : Progressive
Bits/(Pixel*Frame) : 0.179
Stream size : 3.57 GiB (90%)
Language : English
Default : Yes
Forced : No
Color range : Limited
Color primaries : BT.709
Transfer characteristics : BT.709
Matrix coefficients : BT.709
Audio #1
ID : 2
Format : AC-3
Format/Info : Audio Coding 3
Commercial name : Dolby Digital
Codec ID : A_AC3
Duration : 56 min 6 s
Bit rate mode : Constant
Bit rate : 384 kb/s
Channel(s) : 6 channels
Channel layout : L R C LFE Ls Rs
Sampling rate : 48.0 kHz
Frame rate : 31.250 FPS (1536 SPF)
Compression mode : Lossy
Stream size : 154 MiB (4%)
Language : Russian
Service kind : Complete Main
Default : Yes
Forced : No
Audio #2
ID : 3
Format : E-AC-3
Format/Info : Enhanced AC-3
Commercial name : Dolby Digital Plus
Codec ID : A_EAC3
Duration : 57 min 30 s
Bit rate mode : Constant
Bit rate : 640 kb/s
Channel(s) : 6 channels
Channel layout : L R C LFE Ls Rs
Sampling rate : 48.0 kHz
Frame rate : 31.250 FPS (1536 SPF)
Compression mode : Lossy
Delay relative to video : 28 ms
Stream size : 263 MiB (6%)
Language : English
Service kind : Complete Main
Default : No
Forced : No
Text #1
ID : 4
Format : UTF-8
Codec ID : S_TEXT/UTF8
Codec ID/Info : UTF-8 Plain Text
Duration : 6 min 19 s
Bit rate : 5 b/s
Count of elements : 4
Stream size : 283 Bytes (0%)
Title : Forced
Language : Russian
Default : Yes
Forced : No
Text #2
ID : 5
Format : UTF-8
Codec ID : S_TEXT/UTF8
Codec ID/Info : UTF-8 Plain Text
Duration : 53 min 19 s
Bit rate : 87 b/s
Count of elements : 517
Stream size : 34.2 KiB (0%)
Language : Russian
Default : No
Forced : No
Text #3
ID : 6
Format : UTF-8
Codec ID : S_TEXT/UTF8
Codec ID/Info : UTF-8 Plain Text
Duration : 57 min 17 s
Bit rate : 61 b/s
Count of elements : 833
Stream size : 25.7 KiB (0%)
Title : SDH
Language : English
Default : No
Forced : No

Скриншоты

[Цитировать]



Показать сообщения:    

Текущее время: 25-Май 11:54

Часовой пояс: UTC + 6


Вы не можете начинать темы
Вы не можете отвечать на сообщения
Вы не можете редактировать свои сообщения
Вы не можете удалять свои сообщения
Вы не можете голосовать в опросах
Вы не можете прикреплять файлы к сообщениям
Вы не можете скачивать файлы

!ВНИМАНИЕ!
Сайт не предоставляет электронные версии произведений, а занимается лишь коллекционированием и каталогизацией ссылок, присылаемых и публикуемых на форуме нашими читателями. Если вы являетесь правообладателем какого-либо представленного материала и не желаете, чтобы ссылка на него находилась в нашем каталоге, свяжитесь с нами, и мы незамедлительно удалим ее. Файлы для обмена на трекере предоставлены пользователями сайта, и администрация не несет ответственности за их содержание. Просьба не заливать файлы, защищенные авторскими правами, а также файлы нелегального содержания!