***Уважаемые пользователи и гости !!! Сайт переехал на новый домен Torrents-club.info. Просьба изменить ваши закладки! ***
 
[ Сегодня идет свободное скачивание без начисления Download ]


Статистика раздачи
Скачал: [ 2 ]
 
   
 
 
 
 
- Непосредственно Каха! - Информация о фильме:
Название: Непосредственно Каха!
Год выхода: 2020
Жанр: Комедия
Режиссер: Виктор Шамиров
В ролях: Артем Карокозян, Артем Калайджян, Марина Калецкая, Людмила Артемьева, Микаэл Погосян, Нана Муштакова, Милена Цховреба-Агранович, Тамара Турава, Вартан Даниелян, Артур Оганесян
Описание: Каха запал на прекрасную Софу, но, чтобы подобраться к её сердцу, ему нужно на своей «копейке» обогнать новенькую BMW Руслана и забить на дружбу с Серго. Что же выберет Каха – любовь или дружбу?

Страна: Россия
Студия: Фильмы навсегда, START Studio
Продолжительность: 01:48:24
Перевод: Не требуется | iTunes
Информация о файле:
Кодек: AVC
Формат: MKV
Качество: WEB-DLRip-AVC
Видео: MPEG-4 AVC, 1024x540, 24.000 fps, 1533 kbps,
Аудио RU: AC3, 6 ch, 48 kHz, 384 kbps
Навигация по главам: Да

Скриншоты

MediaInfo

General
Unique ID : 66098111472282674287342881706043470051 (0x31BA0880CA7116A4FB1BB209F50F70E3)
Complete name : D:uTorrentРипы_от_wolf1245_MediaBitKaha.2020.WEB-DLRip-AVC_wolf1245_MediaBit .mkv
Format : Matroska
Format version : Version 4
File size : 1.45 GiB
Duration : 1 h 48 min
Overall bit rate : 1 918 kb/s
Movie name : Kaha.2020.WEB-DLRip-AVC_wolf1245_MediaBit
Encoded date : UTC 2020-12-31 11:14:13
Writing application : mkvmerge v51.0.0 ('I Wish') 64-bit
Writing library : libebml v1.4.0 + libmatroska v1.6.2
Video
ID : 1
Format : AVC
Format/Info : Advanced Video Codec
Format profile : High@L4.1
Format settings : CABAC / 12 Ref Frames
Format settings, CABAC : Yes
Format settings, Reference frames : 12 frames
Codec ID : V_MPEG4/ISO/AVC
Duration : 1 h 48 min
Bit rate : 1 533 kb/s
Width : 1 024 pixels
Height : 540 pixels
Display aspect ratio : 1.896
Frame rate mode : Constant
Frame rate : 24.000 FPS
Color space : YUV
Chroma subsampling : 4:2:0
Bit depth : 8 bits
Scan type : Progressive
Bits/(Pixel*Frame) : 0.116
Stream size : 1.16 GiB (80%)
Title : wolf1245_MediaBit
Writing library : x264 core 157 r2958 57baac4
Encoding settings : cabac=1 / ref=12 / deblock=1:-1:-1 / analyse=0x3:0x133 / me=umh / subme=11 / psy=1 / psy_rd=1.00:0.15 / mixed_ref=1 / me_range=48 / chroma_me=1 / trellis=2 / 8x8dct=1 / cqm=0 / deadzone=21,11 / fast_pskip=0 / chroma_qp_offset=-3 / threads=10 / lookahead_threads=2 / sliced_threads=0 / nr=0 / decimate=0 / interlaced=0 / bluray_compat=0 / constrained_intra=0 / bframes=12 / b_pyramid=2 / b_adapt=2 / b_bias=0 / direct=3 / weightb=1 / open_gop=0 / weightp=2 / keyint=240 / keyint_min=24 / scenecut=40 / intra_refresh=0 / rc_lookahead=60 / rc=2pass / mbtree=0 / bitrate=1533 / ratetol=1.0 / qcomp=0.60 / qpmin=0 / qpmax=69 / qpstep=4 / cplxblur=20.0 / qblur=0.5 / vbv_maxrate=50000 / vbv_bufsize=62500 / nal_hrd=none / filler=0 / ip_ratio=1.40 / pb_ratio=1.30 / aq=1:1.00
Language : Russian
Default : Yes
Forced : No
Color range : Limited
Color primaries : BT.709
Transfer characteristics : BT.709
Matrix coefficients : BT.709
Audio
ID : 2
Format : AC-3
Format/Info : Audio Coding 3
Commercial name : Dolby Digital
Codec ID : A_AC3
Duration : 1 h 48 min
Bit rate mode : Constant
Bit rate : 384 kb/s
Channel(s) : 6 channels
Channel layout : L R C LFE Ls Rs
Sampling rate : 48.0 kHz
Frame rate : 31.250 FPS (1536 SPF)
Compression mode : Lossy
Stream size : 298 MiB (20%)
Title : Original | iTunes
Language : Russian
Service kind : Complete Main
Default : Yes
Forced : No
Menu
00:00:00.000 : :Глава 1
00:08:32.416 : :Глава 2
00:17:50.874 : :Глава 3
00:26:48.499 : :Глава 4
00:35:35.498 : :Глава 5
00:43:56.749 : :Глава 6
00:51:58.082 : :Глава 7
01:00:14.707 : :Глава 8
01:08:53.915 : :Глава 9
01:18:07.873 : :Глава 10
01:26:14.456 : :Глава 11
01:34:53.081 : :Глава 12
01:42:54.956 : :Глава 13

[Цитировать]



Показать сообщения:    

Текущее время: 05-Мар 21:47

Часовой пояс: UTC + 6


Вы не можете начинать темы
Вы не можете отвечать на сообщения
Вы не можете редактировать свои сообщения
Вы не можете удалять свои сообщения
Вы не можете голосовать в опросах
Вы не можете прикреплять файлы к сообщениям
Вы не можете скачивать файлы

!ВНИМАНИЕ!
Сайт не предоставляет электронные версии произведений, а занимается лишь коллекционированием и каталогизацией ссылок, присылаемых и публикуемых на форуме нашими читателями. Если вы являетесь правообладателем какого-либо представленного материала и не желаете, чтобы ссылка на него находилась в нашем каталоге, свяжитесь с нами, и мы незамедлительно удалим ее. Файлы для обмена на трекере предоставлены пользователями сайта, и администрация не несет ответственности за их содержание. Просьба не заливать файлы, защищенные авторскими правами, а также файлы нелегального содержания!