***Уважаемые пользователи и гости !!! Сайт переехал на новый домен Torrents-club.info. Просьба изменить ваши закладки! ***
 
[ Сегодня идет свободное скачивание без начисления Download ]


Статистика раздачи
Скачал: [ 2 ]
 
   
 
 
 
 
Самый Новый год!Информация о фильме
Название: Самый Новый год!
Год выхода: 2020
Жанр: Комедия, фантастика
Режиссер: Антонина Руже
В ролях: Роман Курцын, Алина Алексеева, Елизавета Кононова, Ксения Радченко, Иван Макаревич, Владимир Сычев, Наталья Щукина, Антон Шурцов, Артем Костюнёв, Юлия Серина и др.
О фильме:
У Саши три проблемы: девушка, которая хочет свадьбу, на которую он никак не может решиться, ведь он всего-навсего ветеринарный фельдшер и чистит уши собакам, родители, ведь маме не нравится Оля, а папе не нравится его работа, потому что Саша чистит уши собакам, и третья - он не нравится Олиной маме, потому что... да, потому что он чистит уши собакам. В новогоднюю ночь все собираются у Саши дома, чтобы отпраздновать еще и его день рождения, ведь родился он 1 января. Оля приготовила ему подарок - он скоро станет папой! Чтобы хоть на какое-то время остаться наедине со своими мыслями, Саша прячется в туалете. Нажав на смыв, он оказывается... в квартире своих родителей за два часа до своего рождения. И на дворе 31 декабря 1992 года.

Страна: Россия
Перевод: Не требуется
Продолжительность: 01:19:36
Файл
Формат: Matroska
Качество: WEB-DLRip-AVC
Видео: 768x320 at 24.000 fps, x264@L4.1, ~1211 kbps, 0.205 bpp
Аудио: AAC, 2 ch, ~96 kbps - | Русский | -
Субтитры: Нет

M/I

x264 [info]: frame I:986 Avg QP:15.55 size: 44787
x264 [info]: frame P:26119 Avg QP:18.14 size: 13800
x264 [info]: frame B:87528 Avg QP:20.86 size: 3640
x264 [info]: consecutive B-frames: 1.9% 2.3% 10.7% 30.0% 20.5% 21.8% 10.1% 1.5% 0.6% 0.3% 0.2% 0.1%
General
Format : Matroska
Format version : Version 4
File size : 745 MiB
Duration : 1 h 19 min
Overall bit rate : 1 308 kb/s
Movie name : Самый Новый год!.(2020).WEB-DLRip-AVC.[-=DoMiNo=-]
Encoded date : UTC 2020-12-31 10:29:33
Writing application : mkvmerge v51.0.0 ('I Wish') 64-bit
Writing library : libebml v1.4.0 + libmatroska v1.6.2
Cover : Yes
Attachments : Cover.jpg / Cover 2.jpg
Video
ID : 1
Format : AVC
Format/Info : Advanced Video Codec
Format profile : High@L4.1
Format settings : CABAC / 12 Ref Frames
Format settings, CABAC : Yes
Format settings, Reference : 12 frames
Codec ID : V_MPEG4/ISO/AVC
Duration : 1 h 19 min
Bit rate : 1 211 kb/s
Width : 768 pixels
Height : 320 pixels
Display aspect ratio : 2.40:1
Frame rate mode : Constant
Frame rate : 24.000 FPS
Color space : YUV
Chroma subsampling : 4:2:0
Bit depth : 8 bits
Scan type : Progressive
Bits/(Pixel*Frame) : 0.205
Stream size : 690 MiB (93%)
Title : -=DoMiNo=-
Writing library : x264 core 161 r3027 4121277
Encoding settings : cabac=1 / ref=12 / deblock=1:-2:-1 / analyse=0x3:0x133 / me=umh / subme=10 / psy=1 / psy_rd=1.05:0.15 / mixed_ref=1 / me_range=32 / chroma_me=1 / trellis=2 / 8x8dct=1 / cqm=0 / deadzone=21,11 / fast_pskip=0 / chroma_qp_offset=-3 / threads=6 / lookahead_threads=1 / sliced_threads=0 / nr=0 / decimate=0 / interlaced=0 / bluray_compat=0 / constrained_intra=0 / bframes=11 / b_pyramid=2 / b_adapt=2 / b_bias=0 / direct=3 / weightb=1 / open_gop=0 / weightp=2 / keyint=250 / keyint_min=24 / scenecut=40 / intra_refresh=0 / rc_lookahead=60 / rc=2pass / mbtree=0 / bitrate=1211 / ratetol=1.0 / qcomp=0.65 / qpmin=0 / qpmax=69 / qpstep=4 / cplxblur=20.0 / qblur=0.5 / vbv_maxrate=50000 / vbv_bufsize=62500 / nal_hrd=none / filler=0 / ip_ratio=1.40 / pb_ratio=1.30 / aq=1:1.00
Language : Russian
Default : Yes
Forced : No
Color range : Limited
Color primaries : BT.709
Transfer characteristics : BT.709
Matrix coefficients : BT.709
Audio
ID : 2
Format : AAC LC SBR
Format/Info : Advanced Audio Codec Low Complexity with Spectral Band Replication
Commercial name : HE-AAC
Format settings : Explicit
Codec ID : A_AAC-2
Duration : 1 h 19 min
Bit rate : 96.0 kb/s
Channel(s) : 2 channels
Channel layout : L R
Sampling rate : 48.0 kHz
Frame rate : 23.438 FPS (2048 SPF)
Compression mode : Lossy
Stream size : 53.9 MiB (7%)
Language : Russian
Default : Yes
Forced : Yes
Menu
00:00:00.000 : :Глава 01
00:05:00.000 : :Глава 02
00:10:00.000 : :Глава 03
00:15:00.000 : :Глава 04
00:20:00.000 : :Глава 05
00:25:00.000 : :Глава 06
00:30:00.000 : :Глава 07
00:35:00.000 : :Глава 08
00:40:00.000 : :Глава 09
00:45:00.000 : :Глава 10
00:50:00.000 : :Глава 11
00:55:00.000 : :Глава 12
01:00:00.000 : :Глава 13
01:05:00.000 : :Глава 14
01:10:00.000 : :Глава 15
01:15:00.000 : :Глава 16

Скриншоты

[Цитировать]



Показать сообщения:    

Текущее время: 05-Мар 21:45

Часовой пояс: UTC + 6


Вы не можете начинать темы
Вы не можете отвечать на сообщения
Вы не можете редактировать свои сообщения
Вы не можете удалять свои сообщения
Вы не можете голосовать в опросах
Вы не можете прикреплять файлы к сообщениям
Вы не можете скачивать файлы

!ВНИМАНИЕ!
Сайт не предоставляет электронные версии произведений, а занимается лишь коллекционированием и каталогизацией ссылок, присылаемых и публикуемых на форуме нашими читателями. Если вы являетесь правообладателем какого-либо представленного материала и не желаете, чтобы ссылка на него находилась в нашем каталоге, свяжитесь с нами, и мы незамедлительно удалим ее. Файлы для обмена на трекере предоставлены пользователями сайта, и администрация не несет ответственности за их содержание. Просьба не заливать файлы, защищенные авторскими правами, а также файлы нелегального содержания!