***Уважаемые пользователи и гости !!! Сайт переехал на новый домен Torrents-club.info. Просьба изменить ваши закладки! ***
 
[ Сегодня идет свободное скачивание без начисления Download ]


Статистика раздачи
Скачал: [ 1 ]
 
   
 
 
 
 
Американский пирог представляет: Правила для девочек
American Pie Presents: Girls' Rules
- Информация о фильме
Название: Американский пирог представляет: Правила для девочек
Оригинальное название: American Pie Presents: Girls' Rules
Год выхода: 2020
Жанр: Комедия
Режиссер: Майк Эллиот
В ролях: Мэдисон Петтис, Лиззи Бродвей, Наташа Бенхам, Пайпер Курда, Даррен Барнет, Захари Гордан, Камерон Энджелс, Зэйн Эмори, Кристиан Вальдеррама, Сара Рю
О фильме:
Для Кайлы, Мишель, Энни и Стефани начинается ответственный период - окончание обучения и соответственно долгожданный выпускной вечер. Девчонки намерены воплотить самые похотливые желания в жизнь и провести незабываемую ночь, ради сногсшибательных парней из футбольной команды. Но для успеха им необходимо объединиться... Смогут ли они реализовать свой план либо останутся неудачницами?

Страна: США
Студия: Universal Pictures, Capital Arts Entertainment
Продолжительность: 01:35:31
Перевод: Профессиональный (дублированный) | iTunes
Файл
Формат: Matroska
Качество: WEB-DL 1080p
Видео: MPEG-4 AVC, 1920x1080 (16:9), 10000 Kbps, 23.976 fps
Аудио 1: Russian: 48 kHz, AC3, 3/2 (L,C,R,l,r) + LFE ch, ~384 kbps
Аудио 2: English: 48 kHz, E-AC3, 3/2 (L,C,R,l,r) + LFE ch, ~640 kbps
Субтитры: Английские (SDH)

MediaInfo

General
Unique ID : 246243419657243606652046597641938589176 (0xB940C1EEF7EF05C9B35B8466438ED5F8)
Complete name : American.Pie.Presents.Girls.Rules.2020.AMZN.WEB-DL.1080p.mkv
Format : Matroska
Format version : Version 4 / Version 2
File size : 7.18 GiB
Duration : 1 h 35 min
Overall bit rate : 10.8 Mb/s
Encoded date : UTC 2021-01-05 08:31:27
Writing application : mkvmerge v7.8.0 ('River Man') 32bit built on Apr 3 2015 12:11:22
Writing library : libebml v1.3.1 + libmatroska v1.4.2
Video
ID : 1
Format : AVC
Format/Info : Advanced Video Codec
Format profile : High@L4
Format settings, CABAC : Yes
Format settings, RefFrames : 4 frames
Codec ID : V_MPEG4/ISO/AVC
Duration : 1 h 35 min
Bit rate mode : Constant
Bit rate : 10 000 kb/s
Width : 1 920 pixels
Height : 1 080 pixels
Display aspect ratio : 16:9
Frame rate mode : Constant
Frame rate : 23.976 (24000/1001) FPS
Color space : YUV
Chroma subsampling : 4:2:0
Bit depth : 8 bits
Scan type : Progressive
Bits/(Pixel*Frame) : 0.201
Stream size : 6.49 GiB (90%)
Language : English
Default : Yes
Forced : No
Color range : Limited
Color primaries : BT.709
Transfer characteristics : BT.709
Matrix coefficients : BT.709
Audio #1
ID : 2
Format : AC-3
Format/Info : Audio Coding 3
Format settings, Endianness : Big
Codec ID : A_AC3
Duration : 1 h 35 min
Bit rate mode : Constant
Bit rate : 384 kb/s
Channel(s) : 6 channels
Channel positions : Front: L C R, Side: L R, LFE
Sampling rate : 48.0 kHz
Frame rate : 31.250 FPS (1536 SPF)
Bit depth : 16 bits
Compression mode : Lossy
Stream size : 262 MiB (4%)
Title : iTunes
Language : Russian
Service kind : Complete Main
Default : Yes
Forced : No
Audio #2
ID : 3
Format : E-AC-3
Format/Info : Enhanced Audio Coding 3
Format settings, Endianness : Big
Codec ID : A_EAC3
Duration : 1 h 35 min
Bit rate mode : Constant
Bit rate : 640 kb/s
Channel(s) : 6 channels
Channel positions : Front: L C R, Side: L R, LFE
Sampling rate : 48.0 kHz
Frame rate : 187.500 FPS (256 SPF)
Compression mode : Lossy
Stream size : 437 MiB (6%)
Title : Original
Language : English
Service kind : Complete Main
Default : No
Forced : No
Text
ID : 4
Format : UTF-8
Codec ID : S_TEXT/UTF8
Codec ID/Info : UTF-8 Plain Text
Duration : 1 h 35 min
Bit rate : 94 b/s
Count of elements : 1961
Stream size : 65.9 KiB (0%)
Title : SDH
Language : English
Default : No
Forced : No
Menu
00:00:00.000 : en:1
00:07:04.257 : en:2
00:10:55.947 : en:3
00:18:07.795 : en:4
00:21:24.700 : en:5
00:24:29.926 : en:6
00:27:18.678 : en:7
00:32:18.602 : en:8
00:38:37.731 : en:9
00:43:58.093 : en:10
00:48:01.002 : en:11
00:51:56.362 : en:12
00:56:21.251 : en:13
01:01:47.535 : en:14
01:08:34.191 : en:15
01:14:23.039 : en:16
01:20:50.968 : en:17
01:23:18.907 : en:18
01:27:34.746 : en:19
01:31:54.464 : en:20

Скриншоты


[Цитировать]



Показать сообщения:    

Текущее время: 08-Мар 11:39

Часовой пояс: UTC + 6


Вы не можете начинать темы
Вы не можете отвечать на сообщения
Вы не можете редактировать свои сообщения
Вы не можете удалять свои сообщения
Вы не можете голосовать в опросах
Вы не можете прикреплять файлы к сообщениям
Вы не можете скачивать файлы

!ВНИМАНИЕ!
Сайт не предоставляет электронные версии произведений, а занимается лишь коллекционированием и каталогизацией ссылок, присылаемых и публикуемых на форуме нашими читателями. Если вы являетесь правообладателем какого-либо представленного материала и не желаете, чтобы ссылка на него находилась в нашем каталоге, свяжитесь с нами, и мы незамедлительно удалим ее. Файлы для обмена на трекере предоставлены пользователями сайта, и администрация не несет ответственности за их содержание. Просьба не заливать файлы, защищенные авторскими правами, а также файлы нелегального содержания!