***Уважаемые пользователи и гости !!! Сайт переехал на новый домен Torrents-club.info. Просьба изменить ваши закладки! ***
 
[ Сегодня идет свободное скачивание без начисления Download ]


Статистика раздачи
Скачал: [ 1 ]
 
   
 
 
 
 
Ход королевы / Ферзевый гамбит / The Queen's Gambit- Информация о фильме
Название: Ход королевы / Ферзевый гамбит
Оригинальное название: The Queen's Gambit
Год выхода: 2020
Жанр: драма, спорт
Режиссер: Скотт Фрэнк
В ролях: Аня Тейлор-Джой, Томас Сэнгстер, Билл Кэмп, Моусес Ингрэм, Гарри Меллинг, Хлоя Пирри, Исла Джонстон, Аннабет Келли, Мариэль Хеллер, Янина Элькин
О фильме: «Ход королевы» — драматический мини-сериал платформы Netflix, ставший одной из самых громких новинок осени 2020 года, и это при том, что речь в нем идет не о каких-то непобедимых вирусах или жизни в четырех стенах, а о шахматах. В основу сюжета положена книга Уолтера Тевиса, сценаристом и режиссером сериала выступил Скотт Фрэнк («Логан», «Забытые Богом»), а консультантом значился легендарный гроссмейстер Гарри Каспаров. Через историю одной выдающейся шахматистки, страдающей от наркотической и алкогольной зависимостей, «Ход королевы» исследует тему непомерно высокой цены, которую приходится платить гению за свой дар, поднимает вопросы одиночества, необходимой как воздух поддержки от тех, кто по крови тебе семьей не является, но на деле становится ближе самых близких, а также затрагивает вопросы слома границ и стереотипов в традиционно мужском мире шахмат. Это яркая история сложного взросления, войны амбиций и, в конечном итоге, примирения с собой и окружающим миром. Главную роль в драме исполнила Аня Тейлор-Джой, получившая широкую известной благодаря триллеру М. Найта Шьямалана «Сплит».
Кентукки, 1950-е годы. Девятилетняя Бет Хармон рано осталась сиротой и оказалась в приюте. Из лучших побуждений — чтобы ребенок не так остро переживал смену обстановки — в этом заведении детям давали транквилизаторы, на которые Бет, с подачи подруги, быстро и подсела. Однажды в подвальном помещении она видит уборщика (Билл Кэмп), с задумчивым видом сидящего за какой-то странной доской. Этому человеку суждено стать первым учителем девочки, а затем и первым проигравшим ей мужчиной. С каждым годом одержимость Бет шахматами становится все сильнее и заметней окружающим, и когда ее, уже подростка, удочеряет одна добропорядочная семья, девушка мечтает только об одном — накопить денег на собственную доску и набор фигур. Как только она это сделает, ее жизнь перевернется с ног на голову за каких-то пару лет. Чемпионат за чемпионатом, победа за победой — и вот уже от одного имени Бет Хармон нервный тик случается у каждого приличного шахматиста. Но останется ли Бет в седле, если ее лишить этих волшебных зеленых пилюлек? А если не лишить, не захлебнется ли ее гений в алкогольно-наркотическом цунами, чьи волны становятся все опасней?..

Страна: США
Студия: NetFlix
Продолжительность: ~00:55:00 серия
Перевод: Профессиональный (многоголосый, закадровый) LostFilm
Файл
Качество: WEB-DL 1080p
Формат: Matroska
Видео: 1920x1080 at 24.000 fps, MPEG-4 AVC, ~3150-5800 kbps avg
Аудио#1: Russian: 48 kHz, AC3, 2/0 (L,R) ch, ~384 kbps avg |Многоголосый закадровый, LostFilm|
Аудио#2: English: 48 kHz, Е-AC3, 3/2 (L,C,R,l,r) + LFE ch, ~640 kbps avg
Субтитры: Russian (Forced, Full), English (SDH) и другие
***Примечание: Без рекламы

Знаете ли вы, что…

Оригинальное название сериала переводится как "Ферзевый гамбит".
Аня Тейлор-Джой является большой поклонницей романа, по которому снят сериал, и она настояла на том, чтобы её героиня была рыжеволосой. Так же Аня выбирала причёски и одежду, которые носит Бет.
Изначально для подготовки к роли Аня Тейлор-Джой хотела заниматься с тренером по шахматам, но из-за плотного графика ей это не удалось. Каждую шахматную партию актриса заучивала непосредственно перед съёмками.

Список серий

01. Дебюты / Openings
02. Размен фигур / Exchanges
03. Сдвоенные пешки / Doubled Pawns
04. Миттельшпиль / Middle Game
05. Вилка / Fork
06. Отложенная партия / Adjournment
07. Эндшпиль / End Game

MediaInfo

Общее
Уникальный идентификатор : 208833055618107394111156110143711798202 (0x9D1BC894B832925CB97E17FF8F62E3BA)
Полное имя : The.Queens.Gambit.S01E01.mkv
Формат : Matroska
Версия формата : Version 2
Размер файла : 1,87 Гбайт
Продолжительность : 59 м. 12 с.
Режим общего битрейта : Переменный
Общий поток : 4 522 Кбит/сек
Дата кодирования : UTC 2020-11-27 15:35:57
Программа кодирования : mkvmerge v5.8.0 ('No Sleep / Pillow') built on Sep 2 2012 15:37:04
Библиотека кодирования : libebml v1.2.3 + libmatroska v1.3.0
Видео
Идентификатор : 1
Формат : AVC
Формат/Информация : Advanced Video Codec
Профиль формата : High@L4
Настройки формата : CABAC / 4 Ref Frames
Параметр CABAC формата : Да
Параметр RefFrames формата : 4 кадра
Идентификатор кодека : V_MPEG4/ISO/AVC
Продолжительность : 59 м. 12 с.
Вид битрейта : Переменный
Битрейт : 3 408 Кбит/сек
Максимальный битрейт : 20,0 Мбит/сек
Ширина : 1 920 пикселей
Высота : 1 080 пикселей
Соотношение сторон : 16:9
Режим частоты кадров : Постоянный
Частота кадров : 24,000 кадра/сек
Цветовое пространство : YUV
Субдискретизация насыщенности : 4:2:0
Битовая глубина : 8 бит
Тип развёртки : Прогрессивная
Бит/(Пиксели*Кадры) : 0.068
Размер потока : 1,41 Гбайт (75%)
Библиотека кодирования : x264 core 148 r2722 1b0121b
Настройки программы : cabac=1 / ref=4 / deblock=1:0:0 / analyse=0x3:0x111 / me=umh / subme=10 / psy=1 / psy_rd=1.00:0.00 / mixed_ref=1 / me_range=120 / chroma_me=1 / trellis=2 / 8x8dct=1 / cqm=0 / deadzone=21,11 / fast_pskip=1 / chroma_qp_offset=-2 / threads=6 / lookahead_threads=1 / sliced_threads=0 / nr=0 / decimate=1 / interlaced=0 / bluray_compat=0 / stitchable=1 / constrained_intra=0 / bframes=16 / b_pyramid=2 / b_adapt=2 / b_bias=0 / direct=3 / weightb=1 / open_gop=0 / weightp=2 / keyint=240 / keyint_min=121 / scenecut=0 / intra_refresh=0 / rc_lookahead=240 / rc=crf / mbtree=1 / crf=16.0 / qcomp=0.50 / qpmin=6 / qpmax=51 / qpstep=4 / vbv_maxrate=20000 / vbv_bufsize=25000 / crf_max=0.0 / nal_hrd=vbr / filler=0 / ip_ratio=1.40 / aq=1:0.80
Default : Да
Forced : Нет
Аудио #1
Идентификатор : 2
Формат : AC-3
Формат/Информация : Audio Coding 3
Коммерческое название : Dolby Digital
Идентификатор кодека : A_AC3
Продолжительность : 59 м. 12 с.
Вид битрейта : Постоянный
Битрейт : 384 Кбит/сек
Каналы : 2 канала
Channel layout : L R
Частота : 48,0 КГц
Частота кадров : 31,250 кадров/сек (1536 SPF)
Метод сжатия : С потерями
Размер потока : 163 Мбайт (8%)
Язык : Russian
Service kind : Complete Main
Default : Да
Forced : Нет
Аудио #2
Идентификатор : 3
Формат : E-AC-3
Формат/Информация : Enhanced AC-3
Коммерческое название : Dolby Digital Plus
Идентификатор кодека : A_EAC3
Продолжительность : 59 м. 12 с.
Вид битрейта : Постоянный
Битрейт : 640 Кбит/сек
Каналы : 6 каналов
Channel layout : L R C LFE Ls Rs
Частота : 48,0 КГц
Частота кадров : 31,250 кадров/сек (1536 SPF)
Метод сжатия : С потерями
Размер потока : 271 Мбайт (14%)
Язык : English
Service kind : Complete Main
Default : Нет
Forced : Нет
Текст #1
Идентификатор : 4
Формат : UTF-8
Идентификатор кодека : S_TEXT/UTF8
Идентификатор кодека/Информация : UTF-8 Plain Text
Заголовок : Forced
Язык : Russian
Default : Да
Forced : Нет
Текст #2
Идентификатор : 5
Формат : UTF-8
Идентификатор кодека : S_TEXT/UTF8
Идентификатор кодека/Информация : UTF-8 Plain Text
Заголовок : Russian
Язык : Russian
Default : Нет
Forced : Нет
Текст #3
Идентификатор : 6
Формат : UTF-8
Идентификатор кодека : S_TEXT/UTF8
Идентификатор кодека/Информация : UTF-8 Plain Text
Заголовок : SDH
Язык : English
Default : Нет
Forced : Нет
Текст #4
Идентификатор : 7
Формат : UTF-8
Идентификатор кодека : S_TEXT/UTF8
Идентификатор кодека/Информация : UTF-8 Plain Text
Заголовок : German
Язык : German
Default : Нет
Forced : Нет
Текст #5
Идентификатор : 8
Формат : UTF-8
Идентификатор кодека : S_TEXT/UTF8
Идентификатор кодека/Информация : UTF-8 Plain Text
Заголовок : European Spanish
Язык : Spanish
Default : Нет
Forced : Нет
Текст #6
Идентификатор : 9
Формат : UTF-8
Идентификатор кодека : S_TEXT/UTF8
Идентификатор кодека/Информация : UTF-8 Plain Text
Заголовок : Finnish
Язык : Finnish
Default : Нет
Forced : Нет
Текст #7
Идентификатор : 10
Формат : UTF-8
Идентификатор кодека : S_TEXT/UTF8
Идентификатор кодека/Информация : UTF-8 Plain Text
Заголовок : French
Язык : French
Default : Нет
Forced : Нет
Текст #8
Идентификатор : 11
Формат : UTF-8
Идентификатор кодека : S_TEXT/UTF8
Идентификатор кодека/Информация : UTF-8 Plain Text
Заголовок : Italian
Язык : Italian
Default : Нет
Forced : Нет
Текст #9
Идентификатор : 12
Формат : UTF-8
Идентификатор кодека : S_TEXT/UTF8
Идентификатор кодека/Информация : UTF-8 Plain Text
Заголовок : Polish
Язык : Polish
Default : Нет
Forced : Нет
Текст #10
Идентификатор : 13
Формат : UTF-8
Идентификатор кодека : S_TEXT/UTF8
Идентификатор кодека/Информация : UTF-8 Plain Text
Заголовок : Portuguese
Язык : Portuguese
Default : Нет
Forced : Нет
Текст #11
Идентификатор : 14
Формат : UTF-8
Идентификатор кодека : S_TEXT/UTF8
Идентификатор кодека/Информация : UTF-8 Plain Text
Заголовок : Swedish
Язык : Swedish
Default : Нет
Forced : Нет

Скриншоты

[Цитировать]



Показать сообщения:    

Текущее время: 02-Мар 13:10

Часовой пояс: UTC + 6


Вы не можете начинать темы
Вы не можете отвечать на сообщения
Вы не можете редактировать свои сообщения
Вы не можете удалять свои сообщения
Вы не можете голосовать в опросах
Вы не можете прикреплять файлы к сообщениям
Вы не можете скачивать файлы

!ВНИМАНИЕ!
Сайт не предоставляет электронные версии произведений, а занимается лишь коллекционированием и каталогизацией ссылок, присылаемых и публикуемых на форуме нашими читателями. Если вы являетесь правообладателем какого-либо представленного материала и не желаете, чтобы ссылка на него находилась в нашем каталоге, свяжитесь с нами, и мы незамедлительно удалим ее. Файлы для обмена на трекере предоставлены пользователями сайта, и администрация не несет ответственности за их содержание. Просьба не заливать файлы, защищенные авторскими правами, а также файлы нелегального содержания!