***Уважаемые пользователи и гости !!! Сайт переехал на новый домен Torrents-club.info. Просьба изменить ваши закладки! ***
 
[ Сегодня идет свободное скачивание без начисления Download ]


Статистика раздачи
Скачал: [ 4 ]
 
   
 
 
 
 
Смертельная зона / Outside the Wire
Информация о фильме
Название: Смертельная зона
Оригинальное название: Outside the Wire
Год выхода: 2021
Жанр: Фантастика, фэнтези, боевик, приключения
Режиссер: Микаэль Хофстрём
В ролях: Энтони Маки, Демсон Идрис, Эмили Бичем, Пилу Асбек, Майкл Келли, Кристина Тонтери-Янг, Бобби Локвуд, Энцо Чиленти, Генри Гаррет, Велибор Топич
О фильме:
В будущем война ведётся с помощью пилотируемых дронов. Однажды пилот дрона вынужден отправиться в зону военных действий, где вместе с андроидом должен предотвратить ядерный взрыв.

Страна: США, Венгрия
Студия: 42, Automatik Entertainment, Inspire Entertainment, Leeding Media, NetFlix, Pioneer Stilking Films
Продолжительность: 01:55:52
Перевод: Дублированный | VSI Moscow | по заказу Netflix
Файл
Кодек: x.264
Качество: WEBRip 720p | VSI Moscow
Видео: MPEG-4 AVC, 1760 Kбит/с, 1280x720, 24.000 кадр/с
Аудио #1: Русский (АС3, 6 ch, 640 Кбит/с, 48.0 KHz) Профессиональный (дублированный) VSI Moscow
Аудио #2: Английский (E-AC-3 JOC, 6 ch, 768 Кбит/с, 48.0 KHz)
Субтитры: Русские (Forced, Full), украинские, английские, испанские, французские, немецкие, итальянские, португальские | Нетфликс
► Без Рекламы!
Трейлер

MediaInfo

Источник: Outside.the.Wire.2021.720p.WEB.H264-NAISU
General
Unique ID : 213633763064158193873757293132645350719 (0xA0B85DBB770AC0DA8B2696044ACF3D3F)
Complete name : Outside.the.Wire.2021.WEBRip.720p.mkv
Format : Matroska
Format version : Version 4
File size : 2.33 GiB
Duration : 1 h 55 min
Overall bit rate mode : Variable
Overall bit rate : 2 881 kb/s
Encoded date : UTC 2021-01-15 11:09:30
Writing application : mkvmerge v7.1.0 ('Good Love') 64bit built on Jul 27 2014 13:06:55
Writing library : libebml v1.3.0 + libmatroska v1.4.1
Video
ID : 1
Format : AVC
Format/Info : Advanced Video Codec
Format profile : Main@L3.1
Format settings : CABAC / 3 Ref Frames
Format settings, CABAC : Yes
Format settings, Reference fra : 3 frames
Codec ID : V_MPEG4/ISO/AVC
Duration : 1 h 55 min
Bit rate mode : Variable
Bit rate : 1 471 kb/s
Nominal bit rate : 1 760 kb/s
Maximum bit rate : 2 940 kb/s
Width : 1 280 pixels
Height : 720 pixels
Display aspect ratio : 16:9
Frame rate mode : Constant
Frame rate : 24.000 FPS
Color space : YUV
Chroma subsampling : 4:2:0
Bit depth : 8 bits
Scan type : Progressive
Bits/(Pixel*Frame) : 0.066
Stream size : 1.19 GiB (51%)
Writing library : x264 core 148 r2722 1b0121b
Encoding settings : cabac=1 / ref=3 / deblock=1:0:0 / analyse=0x1:0x111 / me=umh / subme=10 / psy=1 / psy_rd=1.00:0.00 / mixed_ref=1 / me_range=24 / chroma_me=1 / trellis=2 / 8x8dct=0 / cqm=0 / deadzone=21,11 / fast_pskip=1 / chroma_qp_offset=-2 / threads=6 / lookahead_threads=1 / sliced_threads=0 / nr=0 / decimate=1 / interlaced=0 / bluray_compat=0 / stitchable=1 / constrained_intra=0 / bframes=2 / b_pyramid=0 / b_adapt=2 / b_bias=0 / direct=3 / weightb=1 / open_gop=0 / weightp=2 / keyint=250 / keyint_min=24 / scenecut=0 / intra_refresh=0 / rc_lookahead=48 / rc=2pass / mbtree=1 / bitrate=1760 / ratetol=1.0 / qcomp=0.50 / qpmin=6 / qpmax=51 / qpstep=4 / cplxblur=20.0 / qblur=0.5 / vbv_maxrate=2940 / vbv_bufsize=3920 / nal_hrd=vbr / filler=0 / ip_ratio=1.40 / aq=1:1.00
Language : English
Default : Yes
Forced : No
Audio #1
ID : 2
Format : AC-3
Format/Info : Audio Coding 3
Commercial name : Dolby Digital
Codec ID : A_AC3
Duration : 1 h 55 min
Bit rate mode : Constant
Bit rate : 640 kb/s
Channel(s) : 6 channels
Channel layout : L R C LFE Ls Rs
Sampling rate : 48.0 kHz
Frame rate : 31.250 FPS (1536 SPF)
Compression mode : Lossy
Stream size : 530 MiB (22%)
Title : DUB | VSI Moscow
Language : Russian
Service kind : Complete Main
Default : Yes
Forced : No
Audio #2
ID : 3
Format : E-AC-3 JOC
Format/Info : Enhanced AC-3 with Joint Object Coding
Commercial name : Dolby Digital Plus with Dolby Atmos
Codec ID : A_EAC3
Duration : 1 h 55 min
Bit rate mode : Constant
Bit rate : 768 kb/s
Channel(s) : 6 channels
Channel layout : L R C LFE Ls Rs
Sampling rate : 48.0 kHz
Frame rate : 31.250 FPS (1536 SPF)
Compression mode : Lossy
Stream size : 637 MiB (27%)
Language : English
Service kind : Complete Main
Default : No
Forced : No
Complexity index : 16
Number of dynamic objects : 15
Bed channel count : 1 channel
Bed channel configuration : LFE
Text #1
ID : 4
Format : UTF-8
Codec ID : S_TEXT/UTF8
Codec ID/Info : UTF-8 Plain Text
Duration : 1 h 53 min
Bit rate : 1 b/s
Count of elements : 29
Stream size : 1.29 KiB (0%)
Title : Forced
Language : Russian
Default : Yes
Forced : No
Text #2
ID : 5
Format : UTF-8
Codec ID : S_TEXT/UTF8
Codec ID/Info : UTF-8 Plain Text
Duration : 1 h 53 min
Bit rate : 72 b/s
Count of elements : 1220
Stream size : 60.2 KiB (0%)
Title : Russian
Language : Russian
Default : No
Forced : No
Text #3
ID : 6
Format : UTF-8
Codec ID : S_TEXT/UTF8
Codec ID/Info : UTF-8 Plain Text
Duration : 1 h 53 min
Bit rate : 72 b/s
Count of elements : 1265
Stream size : 60.5 KiB (0%)
Title : Ukrainian
Language : Ukrainian
Default : No
Forced : No
Text #4
ID : 7
Format : UTF-8
Codec ID : S_TEXT/UTF8
Codec ID/Info : UTF-8 Plain Text
Duration : 33 min 4 s
Bit rate : 0 b/s
Count of elements : 14
Stream size : 243 Bytes (0%)
Title : English [Forced]
Language : English
Default : No
Forced : No
Text #5
ID : 8
Format : UTF-8
Codec ID : S_TEXT/UTF8
Codec ID/Info : UTF-8 Plain Text
Duration : 1 h 45 min
Bit rate : 62 b/s
Count of elements : 1651
Stream size : 48.4 KiB (0%)
Title : English [SDH]
Language : English
Default : No
Forced : No
Text #6
ID : 9
Format : UTF-8
Codec ID : S_TEXT/UTF8
Codec ID/Info : UTF-8 Plain Text
Duration : 1 h 53 min
Bit rate : 44 b/s
Count of elements : 1176
Stream size : 36.9 KiB (0%)
Title : German
Language : German
Default : No
Forced : No
Text #7
ID : 10
Format : UTF-8
Codec ID : S_TEXT/UTF8
Codec ID/Info : UTF-8 Plain Text
Duration : 1 h 53 min
Bit rate : 44 b/s
Count of elements : 1257
Stream size : 37.3 KiB (0%)
Title : French
Language : French
Default : No
Forced : No
Text #8
ID : 11
Format : UTF-8
Codec ID : S_TEXT/UTF8
Codec ID/Info : UTF-8 Plain Text
Duration : 1 h 53 min
Bit rate : 44 b/s
Count of elements : 1248
Stream size : 36.9 KiB (0%)
Title : Spanish
Language : Spanish
Default : No
Forced : No
Text #9
ID : 12
Format : UTF-8
Codec ID : S_TEXT/UTF8
Codec ID/Info : UTF-8 Plain Text
Duration : 1 h 53 min
Bit rate : 42 b/s
Count of elements : 1181
Stream size : 35.4 KiB (0%)
Title : Italian
Language : Italian
Default : No
Forced : No
Text #10
ID : 13
Format : UTF-8
Codec ID : S_TEXT/UTF8
Codec ID/Info : UTF-8 Plain Text
Duration : 1 h 53 min
Bit rate : 43 b/s
Count of elements : 1205
Stream size : 36.0 KiB (0%)
Title : Portuguese
Language : Portuguese
Default : No
Forced : No

Скриншоты

[Цитировать]



Показать сообщения:    

Текущее время: 28-Фев 15:25

Часовой пояс: UTC + 6


Вы не можете начинать темы
Вы не можете отвечать на сообщения
Вы не можете редактировать свои сообщения
Вы не можете удалять свои сообщения
Вы не можете голосовать в опросах
Вы не можете прикреплять файлы к сообщениям
Вы не можете скачивать файлы

!ВНИМАНИЕ!
Сайт не предоставляет электронные версии произведений, а занимается лишь коллекционированием и каталогизацией ссылок, присылаемых и публикуемых на форуме нашими читателями. Если вы являетесь правообладателем какого-либо представленного материала и не желаете, чтобы ссылка на него находилась в нашем каталоге, свяжитесь с нами, и мы незамедлительно удалим ее. Файлы для обмена на трекере предоставлены пользователями сайта, и администрация не несет ответственности за их содержание. Просьба не заливать файлы, защищенные авторскими правами, а также файлы нелегального содержания!