***Уважаемые пользователи и гости !!! Сайт переехал на новый домен Torrents-club.info. Просьба изменить ваши закладки! ***
 
[ Сегодня идет свободное скачивание без начисления Download ]


Статистика раздачи
Скачал: [ 1 ]
 
   
 
 
 
 
Дичь / FreakyИнформация о фильме
Название: Дичь
Оригинальное название: Freaky
Год выхода: 2020
Жанр: Ужасы, комедия
Режиссер: Кристофер Лэндон
В ролях: Кэтрин Ньютон, Винс Вон, Алан Рак, Кэти Финнеран, Митчелл Хуг, Юрайа Шелтон, Миша Ошерович, Николас Старгел, Келли Ламор Уилсон, Дэна Дрори

О фильме: В среду 11-го опасный психопат по кличке Мясник, сбежавший из психбольницы для преступников, убил четырёх подростков. В руках у маньяка также оказался антикварный кинжал, с которым он следующим вечером нападает на затюканную старшеклассницу Милли, но девушке удаётся спастись. На следующий день, в пятницу 13-го, Милли просыпается на заброшенном складе в теле маньяка, а сам Мясник - в уютной девичьей спальне в теле невинной старшеклассницы. Разумеется, он с большим удовольствием пойдёт в школу, а Милли теперь предстоит выяснить, как вернуться в своё тело и при этом не попасться полиции.
Страна: США
Студия: Blumhouse Productions, Divide/Conquer
Продолжительность: 01:42:04
Перевод: Дублированный | iTunes
Качество: WEB-DL 1080p
Видео: MPEG-4 AVC, 1920x800, 9221 Kbit/s, 23.976 fps
Аудио #01: 48 kHz, AC3, 5.1, 384 Kbps | iTunes | RUS |
Аудио #02: 48 kHz, E-AC3, 5.1, 640 Kbps | Оригинал | ENG |
Субтитры: Русские (Forced, 2 x full), английские

Скриншоты:

MI

General
Unique ID : 22596022943799465350867271551426428727 (0x10FFD5F1D24A4F33CCC5A3B75CEAFF37)
Complete name : E:VideoFirstFreaky.2020.AMZN.WEB-DL.1080p.seleZen.mkv
Format : Matroska
Format version : Version 4
File size : 7.31 GiB
Duration : 1 h 42 min
Overall bit rate : 10.2 Mb/s
Movie name : Freaky 2020 from seleZen
Encoded date : UTC 2021-01-06 19:08:02
Writing application : mkvmerge v40.0.0 ('Old Town Road + Pony') 64-bit
Writing library : libebml v1.3.9 + libmatroska v1.5.2
Video
ID : 1
Format : AVC
Format/Info : Advanced Video Codec
Format profile : High@L4
Format settings : CABAC / 4 Ref Frames
Format settings, CABAC : Yes
Format settings, Reference : 4 frames
Codec ID : V_MPEG4/ISO/AVC
Duration : 1 h 42 min
Bit rate mode : Constant
Bit rate : 9 221 kb/s
Nominal bit rate : 10 000 kb/s
Width : 1 920 pixels
Height : 800 pixels
Display aspect ratio : 2.40:1
Frame rate mode : Constant
Frame rate : 23.976 (24000/1001) FPS
Color space : YUV
Chroma subsampling : 4:2:0
Bit depth : 8 bits
Scan type : Progressive
Bits/(Pixel*Frame) : 0.250
Stream size : 6.57 GiB (90%)
Language : English
Default : Yes
Forced : No
Color range : Limited
Color primaries : BT.709
Transfer characteristics : BT.709
Matrix coefficients : BT.709
Audio #1
ID : 2
Format : AC-3
Format/Info : Audio Coding 3
Commercial name : Dolby Digital
Codec ID : A_AC3
Duration : 1 h 42 min
Bit rate mode : Constant
Bit rate : 384 kb/s
Channel(s) : 6 channels
Channel layout : L R C LFE Ls Rs
Sampling rate : 48.0 kHz
Frame rate : 31.250 FPS (1536 SPF)
Compression mode : Lossy
Stream size : 280 MiB (4%)
Title : iTunes
Language : Russian
Service kind : Complete Main
Default : Yes
Forced : Yes
Audio #2
ID : 3
Format : E-AC-3
Format/Info : Enhanced AC-3
Commercial name : Dolby Digital Plus
Codec ID : A_EAC3
Duration : 1 h 42 min
Bit rate mode : Constant
Bit rate : 640 kb/s
Channel(s) : 6 channels
Channel layout : L R C LFE Ls Rs
Sampling rate : 48.0 kHz
Frame rate : 31.250 FPS (1536 SPF)
Compression mode : Lossy
Stream size : 467 MiB (6%)
Title : Original
Language : English
Service kind : Complete Main
Default : No
Forced : No
Text #1
ID : 4
Format : UTF-8
Codec ID : S_TEXT/UTF8
Codec ID/Info : UTF-8 Plain Text
Duration : 29 min 12 s
Bit rate : 1 b/s
Count of elements : 7
Stream size : 402 Bytes (0%)
Title : Forced
Language : Russian
Default : Yes
Forced : Yes
Text #2
ID : 5
Format : UTF-8
Codec ID : S_TEXT/UTF8
Codec ID/Info : UTF-8 Plain Text
Duration : 1 h 41 min
Bit rate : 75 b/s
Count of elements : 1182
Stream size : 56.1 KiB (0%)
Title : Full v.1
Language : Russian
Default : No
Forced : No
Text #3
ID : 6
Format : UTF-8
Codec ID : S_TEXT/UTF8
Codec ID/Info : UTF-8 Plain Text
Duration : 1 h 35 min
Bit rate : 89 b/s
Count of elements : 1282
Stream size : 62.1 KiB (0%)
Title : Full v.2
Language : Russian
Default : No
Forced : No
Text #4
ID : 7
Format : UTF-8
Codec ID : S_TEXT/UTF8
Codec ID/Info : UTF-8 Plain Text
Duration : 1 h 42 min
Bit rate : 63 b/s
Count of elements : 1822
Stream size : 47.3 KiB (0%)
Title : SDH
Language : English
Default : No
Forced : No

[Цитировать]



Показать сообщения:    

Текущее время: 08-Мар 11:29

Часовой пояс: UTC + 6


Вы не можете начинать темы
Вы не можете отвечать на сообщения
Вы не можете редактировать свои сообщения
Вы не можете удалять свои сообщения
Вы не можете голосовать в опросах
Вы не можете прикреплять файлы к сообщениям
Вы не можете скачивать файлы

!ВНИМАНИЕ!
Сайт не предоставляет электронные версии произведений, а занимается лишь коллекционированием и каталогизацией ссылок, присылаемых и публикуемых на форуме нашими читателями. Если вы являетесь правообладателем какого-либо представленного материала и не желаете, чтобы ссылка на него находилась в нашем каталоге, свяжитесь с нами, и мы незамедлительно удалим ее. Файлы для обмена на трекере предоставлены пользователями сайта, и администрация не несет ответственности за их содержание. Просьба не заливать файлы, защищенные авторскими правами, а также файлы нелегального содержания!