***Уважаемые пользователи и гости !!! Сайт переехал на новый домен Torrents-club.info. Просьба изменить ваши закладки! ***
 
[ Сегодня идет свободное скачивание без начисления Download ]


Статистика раздачи
Скачал: [ 1 ]
 
   
 
 
 
 
Бабоньки (2015) Информация о фильме
Название: Бабоньки
Год выхода: 2015
Жанр: комедия
Режиссер: Антон Коваленко
В ролях:
Елена Захарова, Ирина Аугшкап, Алена Галиардт, Максим Пинскер, Сергей Барковский, Бесо Гатаев, Аслан Бижоев, Тина Кузнецова, Влад Сташевский, Алексей Капитонов
О фильме:
Сюжет комедии погружает нас в жизнь глухих российских деревень. Туда, куда не добралась цивилизация, и где все еще процветает привозная торговля. В такой деревне живет и работает главная героиня Катя. Именно она рассказывает, как живет цивилизация за пределами деревни, какие отношения у людей там… где большие города! Она добывает и привозит в деревню самые новые тренды и моду, рассказывает, как быть привлекательными друг для друга и найти самое главное в жизни — взаимную любовь. Романтика, новые запахи, модные вещи вдохновляют на подвиги (в прямом и переносном смысле) героинь фильма. Женщины готовы на все, чтобы обрести свое женское счастье. Мечта всей Катиной жизни — Влад Сташевский! Похищение Влада Сташевского — генеральный план героинь комедии.

Страна: Россия
Студия: Медиа 77
Продолжительность: 01:28:29
Перевод: не требуется
Файл
Кодек: H.264
Качество: WEBRip 1080p
Видео: AVC, 1920x1080 (16:9), 25 fps ~ 3045 Kbps
Звук: AC3, 48 KHz, 2 ch ~ 192 Kb/s
Субтитры: отсутствуют

MI:

General
Unique ID : 337006030934166264848742318555851371760 (0xFD89002A0AEC3E8F323ACDFF8DF3B4F0)
Complete name : J:wotБабоньки (2015).by.Alexandr.mkv
Format : Matroska
Format version : Version 4 / Version 2
File size : 2.04 GiB
Duration : 1h 28mn
Overall bit rate : 3 303 Kbps
Encoded date : UTC 2020-06-26 16:20:24
Writing application : mkvmerge v21.0.0 ('Tardigrades Will Inherit The Earth') 32-bit
Writing library : Lavf57.71.100
Video
ID : 1
Format : AVC
Format/Info : Advanced Video Codec
Format profile : High@L4
Format settings, CABAC : Yes
Format settings, ReFrames : 3 frames
Codec ID : V_MPEG4/ISO/AVC
Duration : 1h 28mn
Bit rate : 3 045 Kbps
Width : 1 920 pixels
Height : 1 080 pixels
Display aspect ratio : 16:9
Frame rate mode : Constant
Frame rate : 25.000 fps
Color space : YUV
Chroma subsampling : 4:2:0
Bit depth : 8 bits
Scan type : Progressive
Bits/(Pixel*Frame) : 0.059
Stream size : 1.88 GiB (92%)
Default : Yes
Forced : No
Color range : Limited
Color primaries : BT.709
Transfer characteristics : BT.709
Matrix coefficients : BT.709
HANDLER_NAME : ISO Media file produced by Google Inc.
DURATION : 01:28:29.800000000
NUMBER_OF_FRAMES : 132745
NUMBER_OF_BYTES : 2063433279
_STATISTICS_WRITING_APP : mkvmerge v21.0.0 ('Tardigrades Will Inherit The Earth') 32-bit
_STATISTICS_WRITING_DATE_UTC : 2020-06-26 16:20:24
_STATISTICS_TAGS : BPS DURATION NUMBER_OF_FRAMES NUMBER_OF_BYTES
Audio
ID : 2
Format : AC-3
Format/Info : Audio Coding 3
Mode extension : CM (complete main)
Format settings, Endianness : Big
Codec ID : A_AC3
Duration : 1h 28mn
Bit rate mode : Constant
Bit rate : 192 Kbps
Channel(s) : 2 channels
Channel positions : Front: L R
Sampling rate : 48.0 KHz
Compression mode : Lossy
Stream size : 122 MiB (6%)
Language : English
Default : Yes
Forced : No
HANDLER_NAME : ISO Media file produced by Google Inc.
DURATION : 01:28:29.888000000
NUMBER_OF_FRAMES : 165934
NUMBER_OF_BYTES : 127437312
_STATISTICS_WRITING_APP : mkvmerge v21.0.0 ('Tardigrades Will Inherit The Earth') 32-bit
_STATISTICS_WRITING_DATE_UTC : 2020-06-26 16:20:24
_STATISTICS_TAGS : BPS DURATION NUMBER_OF_FRAMES NUMBER_OF_BYTES

Скриншоты

[Цитировать]



Показать сообщения:    

Текущее время: 05-Мар 23:31

Часовой пояс: UTC + 6


Вы не можете начинать темы
Вы не можете отвечать на сообщения
Вы не можете редактировать свои сообщения
Вы не можете удалять свои сообщения
Вы не можете голосовать в опросах
Вы не можете прикреплять файлы к сообщениям
Вы не можете скачивать файлы

!ВНИМАНИЕ!
Сайт не предоставляет электронные версии произведений, а занимается лишь коллекционированием и каталогизацией ссылок, присылаемых и публикуемых на форуме нашими читателями. Если вы являетесь правообладателем какого-либо представленного материала и не желаете, чтобы ссылка на него находилась в нашем каталоге, свяжитесь с нами, и мы незамедлительно удалим ее. Файлы для обмена на трекере предоставлены пользователями сайта, и администрация не несет ответственности за их содержание. Просьба не заливать файлы, защищенные авторскими правами, а также файлы нелегального содержания!