***Уважаемые пользователи и гости !!! Сайт переехал на новый домен Torrents-club.info. Просьба изменить ваши закладки! ***
 
[ Сегодня идет свободное скачивание без начисления Download ]


Статистика раздачи
Скачал: [ 3 ]
 
   
 
 
 
 
Проклятие Лауры: Завещание / Звонок из подземелья / The Call- Информация о фильме
Название: Проклятие Лауры: Завещание / Звонок из подземелья
Оригинальное название: The Call
Год выхода: 2020
Режиссер: Тимоти Вудворд мл.
В ролях: Лин Шэй, Тобин Белл, Честер Рашинг, Эрин Сандерс, Майк К. Мэннинг, Слоун Морган Сигел, Джудд Лорманд, Рэнди Дж. Гудвин, Бруклин Энн Миллер, Леа Контрерас
О фильме:
Октябрь 1987 года. Крис, новенький в школе, знакомится с группой подростков, которые на протяжении нескольких лет достают пожилую женщину Эдит. Ребята уверены, что она - ведьма, и именно она виновата в исчезновении Лауры, младшей сестры их подруги. Но вскоре Эдит кончает с собой и, как выясняется, оставляет им 100 тысяч долларов, но с одним условием: деньги получит тот, кто позвонит ей на положенный в гроб телефон и продержится на линии одну минуту.

Страна: США
Студия: Appreciated Films, BondIt, Buffalo 8 Productions, Kalispel Tribal Holdings, Single Malt Productions
Продолжительность: 01:37:19
Перевод: Дублированный | iTunes
Файл
Формат: MKV
Качество: BDRip 1080p
Видео: MPEG-4 AVC, 12.6 Mбит/с, 1920x804, 23.976 кадр/с
Аудио #01: AC3, 6 ch, 384 Кбит/с | RUS
Аудио #02: AC3, 6 ch, 640 Кбит/с | ENG
Субтитры: Английские
Дополнительно: Сохранены оригинальные чаптеры

Скриншоты

MI

Complete name : Proklyatie.Lauryi.Zaveschanie.2020.1080p.BluRay.ELEKTRI4KA.UNIONGANG.mkv
Format : Matroska
Format version : Version 4 / Version 2
File size : 9.26 GiB
Duration : 1 h 37 min
Overall bit rate : 13.6 Mb/s
Movie name : Proklyatie.Lauryi.Zaveschanie.2020.1080p.BluRay.ELEKTRI4KA.UNIONGANG.
Encoded date : UTC 2021-01-18 19:21:05
Writing application : mkvmerge v8.3.0 ('Over the Horizon') 64bit
Writing library : libebml v1.3.1 + libmatroska v1.4.2
Video
ID : 1
Format : AVC
Format/Info : Advanced Video Codec
Format profile : High@L4.1
Format settings, CABAC : Yes
Format settings, Reference frames : 5 frames
Codec ID : V_MPEG4/ISO/AVC
Duration : 1 h 37 min
Bit rate : 12.6 Mb/s
Width : 1 920 pixels
Height : 804 pixels
Display aspect ratio : 2.40:1
Frame rate mode : Constant
Frame rate : 23.976 (24000/1001) FPS
Color space : YUV
Chroma subsampling : 4:2:0
Bit depth : 8 bits
Scan type : Progressive
Bits/(Pixel*Frame) : 0.340
Stream size : 8.57 GiB (92%)
Writing library : x264 core 161 r3018+53 ~ Encoded by Mocunaman in Portugal
Encoding settings : cabac=1 / ref=5 / deblock=1:-3:-3 / analyse=0x3:0x113 / me=umh / subme=11 / psy=1 / fade_compensate=0.00 / psy_rd=1.00:0.00 / mixed_ref=1 / me_range=32 / chroma_me=1 / trellis=2 / 8x8dct=1 / cqm=0 / deadzone=21,11 / fast_pskip=0 / chroma_qp_offset=-2 / threads=25 / lookahead_threads=6 / sliced_threads=0 / nr=0 / decimate=0 / interlaced=0 / bluray_compat=0 / constrained_intra=0 / fgo=0 / bframes=10 / b_pyramid=2 / b_adapt=2 / b_bias=0 / direct=3 / weightb=1 / open_gop=0 / weightp=2 / keyint=250 / keyint_min=23 / scenecut=40 / intra_refresh=0 / rc_lookahead=60 / rc=crf / mbtree=0 / crf=18.0000 / qcomp=0.65 / qpmin=0:0:0 / qpmax=69:69:69 / qpstep=4 / vbv_maxrate=62500 / vbv_bufsize=78125 / crf_max=0.0 / nal_hrd=none / filler=0 / ip_ratio=1.30 / pb_ratio=1.20 / aq=3:0.90 / aq-sensitivity=10.00 / aq-factor=1.00:1.00:1.00 / aq2=0 / aq3=0 / zones=0,1392,crf=17/6864,32832,crf=17/34349,131717,crf=17
Language : English
Default : Yes
Forced : No
Color range : Limited
Color primaries : BT.709
Transfer characteristics : BT.709
Matrix coefficients : BT.709
Audio #1
ID : 2
Format : AC-3
Format/Info : Audio Coding 3
Mode extension : CM (complete main)
Format settings, Endianness : Big
Codec ID : A_AC3
Duration : 1 h 37 min
Bit rate mode : Constant
Bit rate : 384 kb/s
Channel(s) : 6 channels
Channel positions : Front: L C R, Side: L R, LFE
Sampling rate : 48.0 kHz
Frame rate : 31.250 FPS (1536 spf)
Bit depth : 16 bits
Compression mode : Lossy
Stream size : 267 MiB (3%)
Title : Dub (iTunes)
Language : Russian
Default : Yes
Forced : Yes
Audio #2
ID : 3
Format : AC-3
Format/Info : Audio Coding 3
Mode extension : CM (complete main)
Format settings, Endianness : Big
Codec ID : A_AC3
Duration : 1 h 37 min
Bit rate mode : Constant
Bit rate : 640 kb/s
Channel(s) : 6 channels
Channel positions : Front: L C R, Side: L R, LFE
Sampling rate : 48.0 kHz
Frame rate : 31.250 FPS (1536 spf)
Bit depth : 16 bits
Compression mode : Lossy
Stream size : 445 MiB (5%)
Title : AC3 DD5.1 640kbs
Language : English
Default : No
Forced : No
Text #1
ID : 4
Format : UTF-8
Codec ID : S_TEXT/UTF8
Codec ID/Info : UTF-8 Plain Text
Duration : 1 h 29 min
Bit rate : 30 b/s
Count of elements : 886
Stream size : 20.0 KiB (0%)
Title : Full .srt
Language : English
Default : No
Forced : No
Text #2
ID : 5
Format : UTF-8
Codec ID : S_TEXT/UTF8
Codec ID/Info : UTF-8 Plain Text
Duration : 1 h 34 min
Bit rate : 32 b/s
Count of elements : 1021
Stream size : 22.2 KiB (0%)
Title : SDH .srt
Language : English
Default : No
Forced : No
Menu
00:00:00.000 : :Chapter 01
00:15:05.530 : :Chapter 02
00:27:19.596 : :Chapter 03
00:44:04.100 : :Chapter 04
01:03:38.565 : :Chapter 05
01:14:02.813 : :Chapter 06
01:17:26.016 : :Chapter 07
01:31:33.655 : :Chapter 08

[Цитировать]



Показать сообщения:    

Текущее время: 13-Апр 20:19

Часовой пояс: UTC + 6


Вы не можете начинать темы
Вы не можете отвечать на сообщения
Вы не можете редактировать свои сообщения
Вы не можете удалять свои сообщения
Вы не можете голосовать в опросах
Вы не можете прикреплять файлы к сообщениям
Вы не можете скачивать файлы

!ВНИМАНИЕ!
Сайт не предоставляет электронные версии произведений, а занимается лишь коллекционированием и каталогизацией ссылок, присылаемых и публикуемых на форуме нашими читателями. Если вы являетесь правообладателем какого-либо представленного материала и не желаете, чтобы ссылка на него находилась в нашем каталоге, свяжитесь с нами, и мы незамедлительно удалим ее. Файлы для обмена на трекере предоставлены пользователями сайта, и администрация не несет ответственности за их содержание. Просьба не заливать файлы, защищенные авторскими правами, а также файлы нелегального содержания!