***Уважаемые пользователи и гости !!! Сайт переехал на новый домен Torrents-club.info. Просьба изменить ваши закладки! ***
 
[ Сегодня идет свободное скачивание без начисления Download ]


Статистика раздачи
Нет
 
   
 
 
 
 
Миссия невыполнима: Племя изгоев / Mission: Impossible - Rogue Nation (2015) [4K, HEVC, HDR, Dolby Vision / Blu-Ray Remux] (2160p) Год выпуска: 2015
Страна: США
Жанр: боевик, триллер, приключения
Выпущено: США, Paramount Pictures, Skydance Productions, Bad Robot
Режиссер: Кристофер МакКуорри
Продолжительность: 02:11:25
Перевод: Дублированный, авторский
Субтитры: Русские, английские
возраст 16+
В ролях:
Том Круз (Ethan Hunt), Ребекка Фергюсон (Ilsa Faust), Саймон Пегг (Benji Dunn), Джереми Реннер (William Brandt), Винг Реймз (Luther Stickell), Шон Харрис (Lane), Алек Болдуин (Alan Hunley), Саймон МакБерни (Atlee), Йенс Хультен (Janik Vinter), Том Холландер (Prime Minister), Чжан Цзинчу (Lauren), Матео Руфино (A400 Pilot)
Описание:
Когда ОМН распускают, и Итан Хант остается не у дел, его команда неожиданно сталкивается с разветвленной международной сетью высокопрофессиональных спецагентов - Синдикатом. Это «племя изгоев» одержимо идеей установления нового мирового порядка и планирует серию разрушительных терактов. Итан и компания объединяются с дискредитированным британским агентом Ильзой Фауст и приступают к своей самой невыполнимой миссии..
Миссия: невыполнима 5 — Русский трейлер (2015)
Качество: Blu-Ray Remux (2160p)
Видео: HEVC, 47.7 Мбит/с, 3840x2160
Аудио: Русский (AC3, 6 ch, 640 Кбит/с), (DTS-HD MA, 8 ch, 5414 Кбит/с), английский (TrueHD, 8 ch, 4895 Кбит/с), (AC3, 6 ch, 640 Кбит/с), (AC3, 2 ch, 224 Кбит/с)

Релиз

Спасибо arxivariys за релиз.
Дорожка №2 взята с раздачи Socrat
Перевод фильма у Юрия Живова был осуществлен в рамках проекта на сайте HDTracker.
Перевод 1: Профессиональный (дублированный) UHD Blu-Ray
Перевод 2: Авторский (одноголосый закадровый) Ю. Живов
Субтитры: русские (forced, full), английские (forced, full - 2 вида, SDH, SDH-Colored)
Оригинальная аудиодорожка: английский
Тип релиза: UHD BDRemux 2160p [Mission: Impossible - Rogue Nation 2015 2160p CEE UHD Blu-ray HEVC TrueHD 7.1-BLUEBIRD]
Контейнер: MKV
Видео: MPEG-H HEVC Video / 42828 kbps - 4836 kbps / 3840x2160 / 23,976 fps / 16:9 / Main 10 @ Level 5.1 @ High / 4:2:0 / 10 bits / 1000nits / Dolby Vision - HDR10 / BT.2020
Аудио 1: Russian AC3 / 5.1 / 48 kHz / 640 kbps / 24-bit |Dub, UHD Blu-Ray|
Аудио 2: Russian DTS-HD Master Audio / 7.1 / 48 kHz / 5414 kbps / 24-bit (DTS Core: 5.1 / 48 kHz / 1509 kbps / 24-bit) |Ю. Живов|
Аудио 3: English Dolby TrueHD/Atmos Audio / 7.1+11 objects / 48 kHz / 4895 kbps / 24-bit |original|
Аудио 4: English AC3 Core: 5.1-EX / 48 kHz / 640 kbps |original|
Аудио 5: English AC3 / 2.0 / 48 kHz / 224 kbps |Commentary by Actor Tom Cruise and Director Christopher McQuarrie|
Формат субтитров: softsub [SRT]

MediaInfo:

Формат                                   : Matroska
Версия формата                           : Version 4
Размер файла                             : 54,7 Гбайт
Продолжительность                        : 2 ч. 11 м.
Режим общего битрейта                    : Переменный
Общий поток                              : 59,5 Мбит/сек
Дата кодирования                         : UTC 2021-01-23 23:23:39
Программа кодирования                    : mkvmerge v52.0.0 ('Secret For The Mad') 64-bit
Библиотека кодирования                   : libebml v1.4.1 + libmatroska v1.6.2
Attachments                              : poster.jpg
Видео
Идентификатор                            : 1
ID in the original source medium         : 4113 (0x1011)
Формат                                   : HEVC
Формат/Информация                        : High Efficiency Video Coding
Профиль формата                          : Main 10@L5.1@High
HDR format                               : Dolby Vision, Version 1.0, dvhe.07.06, BL+EL+RPU, Blu-ray compatible / SMPTE ST 2086, HDR10 compatible
Идентификатор кодека                     : V_MPEGH/ISO/HEVC
Продолжительность                        : 2 ч. 11 м.
Битрейт                                  : 47,7 Мбит/сек
Ширина                                   : 3 840 пикселей
Высота                                   : 2 160 пикселей
Соотношение сторон                       : 16:9
Режим частоты кадров                     : Постоянный
Частота кадров                           : 23,976 (24000/1001) кадра/сек
Цветовое пространство                    : YUV
Субдискретизация насыщенности            : 4:2:0 (Type 2)
Битовая глубина                          : 10 бит
Бит/(Пиксели*Кадры)                      : 0.240
Размер потока                            : 43,8 Гбайт (80%)
Язык                                     : English
Default                                  : Да
Forced                                   : Нет
Цветовой диапазон                        : Limited
Основные цвета                           : BT.2020
Характеристики трансфера                 : PQ
Коэффициенты матрицы                     : BT.2020 non-constant
Mastering display color primaries        : Display P3
Mastering display luminance              : min: 0.0001 cd/m2, max: 1000 cd/m2
Носитель оригинала                       : Blu-ray
Аудио #1
Идентификатор                            : 2
Формат                                   : AC-3
Формат/Информация                        : Audio Coding 3
Коммерческое название                    : Dolby Digital
Идентификатор кодека                     : A_AC3
Продолжительность                        : 2 ч. 11 м.
Вид битрейта                             : Постоянный
Битрейт                                  : 640 Кбит/сек
Каналы                                   : 6 каналов
Channel layout                           : L R C LFE Ls Rs
Частота                                  : 48,0 КГц
Частота кадров                           : 31,250 кадров/сек (1536 SPF)
Метод сжатия                             : С потерями
Размер потока                            : 602 Мбайт (1%)
Заголовок                                : Dub, UHD Blu-Ray
Язык                                     : Russian
Service kind                             : Complete Main
Default                                  : Да
Forced                                   : Нет
Аудио #2
Идентификатор                            : 3
Формат                                   : DTS XLL
Формат/Информация                        : Digital Theater Systems
Коммерческое название                    : DTS-HD Master Audio
Идентификатор кодека                     : A_DTS
Продолжительность                        : 2 ч. 11 м.
Вид битрейта                             : Переменный
Битрейт                                  : 5 414 Кбит/сек
Каналы                                   : 8 каналов
Channel layout                           : C L R LFE Lb Rb Lss Rss
Частота                                  : 48,0 КГц
Частота кадров                           : 93,750 кадра/сек (512 SPF)
Битовая глубина                          : 24 бит
Метод сжатия                             : Без потерь
Размер потока                            : 4,97 Гбайт (9%)
Заголовок                                : Ю. Живов
Язык                                     : Russian
Default                                  : Нет
Forced                                   : Нет
Аудио #3
Идентификатор                            : 4
Формат                                   : MLP FBA 16-ch
Формат/Информация                        : Meridian Lossless Packing FBA with 16-channel presentation
Коммерческое название                    : Dolby TrueHD with Dolby Atmos
Идентификатор кодека                     : A_TRUEHD
Продолжительность                        : 2 ч. 11 м.
Вид битрейта                             : Переменный
Битрейт                                  : 4 895 Кбит/сек
Максимальный битрейт                     : 8 736 Кбит/сек
Каналы                                   : 8 каналов
Channel layout                           : L R C LFE Ls Rs Lb Rb
Частота                                  : 48,0 КГц
Частота кадров                           : 1 200,000 кадров/сек (40 SPF)
Метод сжатия                             : Без потерь
Размер потока                            : 4,50 Гбайт (8%)
Язык                                     : English
Default                                  : Нет
Forced                                   : Нет
Number of dynamic objects                : 11
Bed channel count                        : 1 канал
Bed channel configuration                : LFE
Аудио #4
Идентификатор                            : 5
Формат                                   : AC-3
Формат/Информация                        : Audio Coding 3
Коммерческое название                    : Dolby Digital
Идентификатор кодека                     : A_AC3
Продолжительность                        : 2 ч. 11 м.
Вид битрейта                             : Постоянный
Битрейт                                  : 640 Кбит/сек
Каналы                                   : 6 каналов
Channel layout                           : L R C LFE Ls Rs
Частота                                  : 48,0 КГц
Частота кадров                           : 31,250 кадров/сек (1536 SPF)
Метод сжатия                             : С потерями
Размер потока                            : 602 Мбайт (1%)
Язык                                     : English
Service kind                             : Complete Main
Default                                  : Нет
Forced                                   : Нет
Аудио #5
Идентификатор                            : 6
Формат                                   : AC-3
Формат/Информация                        : Audio Coding 3
Коммерческое название                    : Dolby Digital
Идентификатор кодека                     : A_AC3
Продолжительность                        : 2 ч. 11 м.
Вид битрейта                             : Постоянный
Битрейт                                  : 224 Кбит/сек
Каналы                                   : 2 канала
Channel layout                           : L R
Частота                                  : 48,0 КГц
Частота кадров                           : 31,250 кадров/сек (1536 SPF)
Метод сжатия                             : С потерями
Размер потока                            : 211 Мбайт (0%)
Заголовок                                : Commentary by Actor Tom Cruise and Director Christopher McQuarrie
Язык                                     : English
Service kind                             : Complete Main
Default                                  : Нет
Forced                                   : Нет
Текст #1
Идентификатор                            : 7
Формат                                   : UTF-8
Идентификатор кодека                     : S_TEXT/UTF8
Идентификатор кодека/Информация          : UTF-8 Plain Text
Продолжительность                        : 1 ч. 57 м.
Битрейт                                  : 2 бит/сек
Count of elements                        : 50
Размер потока                            : 2,08 Кбайт (0%)
Заголовок                                : forced
Язык                                     : Russian
Default                                  : Да
Forced                                   : Нет
Текст #2
Идентификатор                            : 8
Формат                                   : UTF-8
Идентификатор кодека                     : S_TEXT/UTF8
Идентификатор кодека/Информация          : UTF-8 Plain Text
Продолжительность                        : 2 ч. 3 м.
Битрейт                                  : 81 бит/сек
Count of elements                        : 1219
Размер потока                            : 73,4 Кбайт (0%)
Заголовок                                : full
Язык                                     : Russian
Default                                  : Нет
Forced                                   : Нет
Текст #3
Идентификатор                            : 9
Формат                                   : UTF-8
Идентификатор кодека                     : S_TEXT/UTF8
Идентификатор кодека/Информация          : UTF-8 Plain Text
Продолжительность                        : 1 ч. 53 м.
Битрейт                                  : 0 бит/сек
Count of elements                        : 22
Размер потока                            : 650 байт (0%)
Заголовок                                : forced
Язык                                     : English
Default                                  : Нет
Forced                                   : Нет
Текст #4
Идентификатор                            : 10
Формат                                   : UTF-8
Идентификатор кодека                     : S_TEXT/UTF8
Идентификатор кодека/Информация          : UTF-8 Plain Text
Продолжительность                        : 2 ч. 3 м.
Битрейт                                  : 49 бит/сек
Count of elements                        : 1233
Размер потока                            : 44,7 Кбайт (0%)
Заголовок                                : full, v1
Язык                                     : English
Default                                  : Нет
Forced                                   : Нет
Текст #5
Идентификатор                            : 11
Формат                                   : UTF-8
Идентификатор кодека                     : S_TEXT/UTF8
Идентификатор кодека/Информация          : UTF-8 Plain Text
Продолжительность                        : 2 ч. 3 м.
Битрейт                                  : 49 бит/сек
Count of elements                        : 1208
Размер потока                            : 44,5 Кбайт (0%)
Заголовок                                : full, v2
Язык                                     : English
Default                                  : Нет
Forced                                   : Нет
Текст #6
Идентификатор                            : 12
Формат                                   : UTF-8
Идентификатор кодека                     : S_TEXT/UTF8
Идентификатор кодека/Информация          : UTF-8 Plain Text
Продолжительность                        : 2 ч. 3 м.
Битрейт                                  : 53 бит/сек
Count of elements                        : 1410
Размер потока                            : 48,6 Кбайт (0%)
Заголовок                                : SDH
Язык                                     : English
Default                                  : Нет
Forced                                   : Нет
Текст #7
Идентификатор                            : 13
Формат                                   : UTF-8
Идентификатор кодека                     : S_TEXT/UTF8
Идентификатор кодека/Информация          : UTF-8 Plain Text
Продолжительность                        : 2 ч. 3 м.
Битрейт                                  : 63 бит/сек
Count of elements                        : 1410
Размер потока                            : 57,1 Кбайт (0%)
Заголовок                                : SDH-Colored
Язык                                     : English
Default                                  : Нет
Forced                                   : Нет
Меню
00:00:00.000                             : en:"Open the door!" / Opening Titles
00:09:53.092                             : en:Luck Runs Out
00:20:45.703                             : en:Six Months Later
00:25:32.072                             : en:Opera Tickets
00:32:00.669                             : en:At the Opera
00:40:03.443                             : en:A Rogue Nation
00:49:35.556                             : en:Morocco
01:01:01.157                             : en:Changing the Profile
01:09:51.687                             : en:High Speed Chase
01:20:20.858                             : en:...And We Helped Him Steal It.
01:29:29.322                             : en:Delivering a Message
01:38:32.824                             : en:The Prime Minister
01:48:19.410                             : en:I Am the Disk
01:57:13.944                             : en:Face To Face
02:03:02.709                             : en:Welcome to the IMF / Closing Credits

Скриншоты

MAGNET

Открой меня

magnet:?xt=urn:btih:9FB1CDC3A952910C75815B23CD77AA0AB7B59686&dn=%d0%9c%d0%b8%d1%81%d1%81%d0%b8%d1%8f%20%d0%bd%d0%b5%d0%b2%d1%8b%d0%bf%d0%be%d0%bb%d0%bd%d0%b8%d0%bc%d0%b0%20%d0%9f%d0%bb%d0%b5%d0%bc%d1%8f%20%d0%b8%d0%b7%d0%b3%d0%be%d0%b5%d0%b2.2015.UHD.BluRay.Remux.2160p.mkv&tr=http%3a%2f%2ftr3.tor4me.info%2fann%3fuk%3dF5E20kt2HF&tr=http%3a%2f%2ftr3.tor2me.info%2fann%3fuk%3dF5E20kt2HF&tr=http%3a%2f%2ftr3.torrent4me.com%2fann%3fuk%3dF5E20kt2HF&tr=http%3a%2f%2fretracker.local%2fannounce&tr=wss%3a%2f%2fwstracker.online&tr=http%3a%2f%2fxbt.setitagila.ru%3a2710%2fannounce

[Цитировать]



Показать сообщения:    

Текущее время: 14-Июн 15:00

Часовой пояс: UTC + 6


Вы не можете начинать темы
Вы не можете отвечать на сообщения
Вы не можете редактировать свои сообщения
Вы не можете удалять свои сообщения
Вы не можете голосовать в опросах
Вы не можете прикреплять файлы к сообщениям
Вы не можете скачивать файлы

!ВНИМАНИЕ!
Сайт не предоставляет электронные версии произведений, а занимается лишь коллекционированием и каталогизацией ссылок, присылаемых и публикуемых на форуме нашими читателями. Если вы являетесь правообладателем какого-либо представленного материала и не желаете, чтобы ссылка на него находилась в нашем каталоге, свяжитесь с нами, и мы незамедлительно удалим ее. Файлы для обмена на трекере предоставлены пользователями сайта, и администрация не несет ответственности за их содержание. Просьба не заливать файлы, защищенные авторскими правами, а также файлы нелегального содержания!