***Уважаемые пользователи и гости !!! Сайт переехал на новый домен Torrents-club.info. Просьба изменить ваши закладки! ***
 
[ Сегодня идет свободное скачивание без начисления Download ]


Статистика раздачи
Нет
 
   
 
 
 
Миссия невыполнима: Племя изгоев / Mission: Impossible - Rogue Nation (2015) [4K / WEB-DLRip] (2160p) Год выпуска: 2015
Страна: США
Жанр: боевик, триллер, приключения
Выпущено: США, Paramount Pictures, Skydance Productions, Bad Robot
Режиссер: Кристофер МакКуорри
Продолжительность: 02:11:33
Перевод: Дублированный, авторский
Субтитры: Русские, английские, украинские
возраст 16+
В ролях:
Том Круз (Ethan Hunt), Ребекка Фергюсон (Ilsa Faust), Саймон Пегг (Benji Dunn), Джереми Реннер (William Brandt), Винг Реймз (Luther Stickell), Шон Харрис (Lane), Алек Болдуин (Alan Hunley), Саймон МакБерни (Atlee), Йенс Хультен (Janik Vinter), Том Холландер (Prime Minister), Чжан Цзинчу (Lauren), Матео Руфино (A400 Pilot)
Описание:
Когда ОМН распускают, и Итан Хант остается не у дел, его команда неожиданно сталкивается с разветвленной международной сетью высокопрофессиональных спецагентов - Синдикатом. Это «племя изгоев» одержимо идеей установления нового мирового порядка и планирует серию разрушительных терактов. Итан и компания объединяются с дискредитированным британским агентом Ильзой Фауст и приступают к своей самой невыполнимой миссии..
Миссия: невыполнима 5 — Русский трейлер (2015)
Качество: WEB-DLRip (2160p)
Видео: MPEG-4 AVC, 16 Mбит/с, 3840x2160
Аудио: Русский (AC3, 6 ch, 640 Кбит/с), (DTS-HD MA, 6 ch, 5414 Кбит/с), украинский (AC3, 6 ch, 448 Кбит/с), английский (TrueHD, 6 ch, 4895 Кбит/с), испанский (AC3, 2 ch, 224 Кбит/с)

Релиз

Перевод: Дублированный, Авторский (одноголосый)
Субтитры: Вшитые, отключаемые_Russian (Forced, iTunes), Russian (iTunes), Ukrainian (Blu-ray CEE), English (Forced, iTunes), English, English (SDH)
Аудио 01: AC3, 6 ch, 640 Kbps - Русский (DUB, Blu-ray CEE)
Аудио 02: AC3, 6 ch, 448 Kbps - Украинский (Dub, DVD R5|)
Аудио 03: DTS-HD MA, 6 ch, 5414 Kbps - Русский (AVO,Живов)
Аудио 04: TrueHD, 6 ch, 4895 Kbps - Английский
Аудио 05: AC3, 2 ch, 224 Kbps - Английский (Commentary by Tom Cruise and director/screenwriter Christopher)

MediaInfo:

Format                                   : Matroska
Format version                           : Version 4 / Version 2
File size                                : 25.6 GiB
Duration                                 : 2 h 11 min
Overall bit rate mode                    : Variable
Overall bit rate                         : 27.9 Mb/s
Movie name                               : Mission: Impossible - Rogue Nation (2015) - Release for ULTRAHDCLUB
Encoded date                             : UTC 2016-06-13 09:25:59
Writing application                      : mkvmerge v9.2.0 ('Photograph') 64bit
Writing library                          : libebml v1.3.3 + libmatroska v1.4.4
Video
ID                                       : 1
Format                                   : AVC
Format/Info                              : Advanced Video Codec
Format profile                           : High@L5.1
Format settings, CABAC                   : Yes
Format settings, ReFrames                : 3 frames
Codec ID                                 : V_MPEG4/ISO/AVC
Duration                                 : 2 h 11 min
Bit rate mode                            : Variable
Bit rate                                 : 16.2 Mb/s
Maximum bit rate                         : 20.2 Mb/s
Width                                    : 3 840 pixels
Height                                   : 2 160 pixels
Display aspect ratio                     : 16:9
Frame rate mode                          : Constant
Frame rate                               : 23.976 (23976/1000) FPS
Color space                              : YUV
Chroma subsampling                       : 4:2:0
Bit depth                                : 8 bits
Scan type                                : Progressive
Bits/(Pixel*Frame)                       : 0.081
Stream size                              : 14.9 GiB (58%)
Title                                    : Mission: Impossible - Rogue Nation (2015) - Release for ULTRAHDCLUB
Writing library                          : x264 core 148 r2579 73ae2d1
Encoding settings                        : cabac=1 / ref=3 / deblock=1:-1:-1 / analyse=0x3:0x113 / me=umh / subme=11 / psy=0 / mixed_ref=1 / me_range=128 / chroma_me=1 / trellis=2 / 8x8dct=1 / cqm=0 / deadzone=0,0 / fast_pskip=1 / chroma_qp_offset=3 / threads=8 / lookahead_threads=1 / sliced_threads=0 / nr=0 / decimate=0 / interlaced=0 / bluray_compat=0 / constrained_intra=0 / bframes=3 / b_pyramid=0 / b_adapt=2 / b_bias=100 / direct=1 / weightb=1 / open_gop=0 / weightp=2 / keyint=48 / keyint_min=25 / scenecut=0 / intra_refresh=0 / rc_lookahead=48 / rc=abr / mbtree=1 / bitrate=16200 / ratetol=0.9 / qcomp=0.60 / qpmin=1 / qpmax=48 / qpstep=2 / vbv_maxrate=20250 / vbv_bufsize=40500 / nal_hrd=vbr / filler=0 / ip_ratio=1.10 / aq=1:0.00
Language                                 : English
Default                                  : Yes
Forced                                   : No
Audio #1
ID                                       : 2
Format                                   : AC-3
Format/Info                              : Audio Coding 3
Mode extension                           : CM (complete main)
Format settings, Endianness              : Big
Codec ID                                 : A_AC3
Duration                                 : 2 h 11 min
Bit rate mode                            : Constant
Bit rate                                 : 640 kb/s
Channel(s)                               : 6 channels
Channel positions                        : Front: L C R, Side: L R, LFE
Sampling rate                            : 48.0 kHz
Frame rate                               : 31.250 FPS (1536 spf)
Compression mode                         : Lossy
Stream size                              : 602 MiB (2%)
Title                                    : AC3 5.1 @ 640 kbps - DUB, Blu-ray CEE
Language                                 : Russian
Default                                  : Yes
Forced                                   : No
Audio #2
ID                                       : 3
Format                                   : AC-3
Format/Info                              : Audio Coding 3
Mode extension                           : CM (complete main)
Format settings, Endianness              : Big
Codec ID                                 : A_AC3
Duration                                 : 2 h 11 min
Bit rate mode                            : Constant
Bit rate                                 : 448 kb/s
Channel(s)                               : 6 channels
Channel positions                        : Front: L C R, Side: L R, LFE
Sampling rate                            : 48.0 kHz
Frame rate                               : 31.250 FPS (1536 spf)
Compression mode                         : Lossy
Stream size                              : 422 MiB (2%)
Title                                    : AC3 5.1 @ 448 kbps - DUB, R5
Language                                 : Ukrainian
Default                                  : No
Forced                                   : No
Audio #3
ID                                       : 4
Format                                   : DTS
Format/Info                              : Digital Theater Systems
Format profile                           : MA / Core
Mode                                     : 16
Format settings, Endianness              : Big
Codec ID                                 : A_DTS
Duration                                 : 2 h 11 min
Bit rate mode                            : Variable / Constant
Bit rate                                 : 5 414 kb/s / 1 509 kb/s
Channel(s)                               : 8 channels / 6 channels
Channel positions                        : Front: L C R, Side: L R, Back: L R, LFE / Front: L C R, Side: L R, LFE
Sampling rate                            : 48.0 kHz
Frame rate                               : 93.750 FPS (512 spf)
Bit depth                                : 24 bits
Compression mode                         : Lossless / Lossy
Stream size                              : 4.97 GiB (19%)
Title                                    : DTS-HD MA 7.1 @ 5414 kbps - AVO, Y.Jivov
Language                                 : Russian
Default                                  : No
Forced                                   : No
Audio #4
ID                                       : 5
Format                                   : Atmos / TrueHD
Codec ID                                 : A_TRUEHD
Duration                                 : 2 h 11 min
Bit rate mode                            : Variable
Bit rate                                 : 4 895 kb/s
Maximum bit rate                         : 8 736 kb/s
Channel(s)                               : Object Based / 8 channels
Channel positions                        : Object Based / Front: L C R, Side: L R, Back: L R, LFE
Sampling rate                            :  / 48.0 kHz
Frame rate                               : 1 200.000 FPS (40 spf)
Compression mode                         : Lossless
Stream size                              : 4.50 GiB (18%)
Title                                    : Dolby Atmos TrueHD 7.1 @ 4895 kbps
Language                                 : English
Default                                  : No
Forced                                   : No
Audio #5
ID                                       : 6
Format                                   : AC-3
Format/Info                              : Audio Coding 3
Mode extension                           : CM (complete main)
Format settings, Endianness              : Big
Codec ID                                 : A_AC3
Duration                                 : 2 h 11 min
Bit rate mode                            : Constant
Bit rate                                 : 224 kb/s
Channel(s)                               : 2 channels
Channel positions                        : Front: L R
Sampling rate                            : 48.0 kHz
Frame rate                               : 31.250 FPS (1536 spf)
Compression mode                         : Lossy
Stream size                              : 211 MiB (1%)
Title                                    : AC3 2.0 @ 224 kbps - Audio Commentary by Tom Cruise and director/screenwriter Christopher
Language                                 : English
Default                                  : No
Forced                                   : No
Text #1
ID                                       : 7
Format                                   : UTF-8
Codec ID                                 : S_TEXT/UTF8
Codec ID/Info                            : UTF-8 Plain Text
Duration                                 : 1 h 57 min
Bit rate                                 : 2 b/s
Count of elements                        : 50
Stream size                              : 2.08 KiB (0%)
Title                                    : Forced, iTunes
Language                                 : Russian
Default                                  : Yes
Forced                                   : No
Text #2
ID                                       : 8
Format                                   : UTF-8
Codec ID                                 : S_TEXT/UTF8
Codec ID/Info                            : UTF-8 Plain Text
Duration                                 : 2 h 3 min
Bit rate                                 : 80 b/s
Count of elements                        : 1219
Stream size                              : 72.5 KiB (0%)
Title                                    : iTunes
Language                                 : Russian
Default                                  : No
Forced                                   : No
Text #3
ID                                       : 9
Format                                   : UTF-8
Codec ID                                 : S_TEXT/UTF8
Codec ID/Info                            : UTF-8 Plain Text
Duration                                 : 2 h 10 min
Bit rate                                 : 73 b/s
Count of elements                        : 1260
Stream size                              : 69.9 KiB (0%)
Title                                    : Blu-ray CEE
Language                                 : Ukrainian
Default                                  : No
Forced                                   : No
Text #4
ID                                       : 10
Format                                   : UTF-8
Codec ID                                 : S_TEXT/UTF8
Codec ID/Info                            : UTF-8 Plain Text
Duration                                 : 1 h 53 min
Bit rate                                 : 0 b/s
Count of elements                        : 22
Stream size                              : 648 Bytes (0%)
Title                                    : Forced, iTunes
Language                                 : English
Default                                  : No
Forced                                   : No
Text #5
ID                                       : 11
Format                                   : UTF-8
Codec ID                                 : S_TEXT/UTF8
Codec ID/Info                            : UTF-8 Plain Text
Duration                                 : 2 h 3 min
Bit rate                                 : 48 b/s
Count of elements                        : 1208
Stream size                              : 43.5 KiB (0%)
Language                                 : English
Default                                  : No
Forced                                   : No
Text #6
ID                                       : 12
Format                                   : UTF-8
Codec ID                                 : S_TEXT/UTF8
Codec ID/Info                            : UTF-8 Plain Text
Duration                                 : 2 h 3 min
Bit rate                                 : 52 b/s
Count of elements                        : 1410
Stream size                              : 47.6 KiB (0%)
Title                                    : SDH
Language                                 : English
Default                                  : No
Forced                                   : No

Скриншоты

MAGNET

Открой меня

magnet:?xt=urn:btih:6090C1D96E6FD0CCF216F530250D195872E217EF&dn=Mission.Impossible.Rogue.Nation.2015.2160p.WEB-DL.2xRus.Ukr.2xEng.ULTRAHDCLUB.mkv&tr=http%3a%2f%2ftr3.tor2me.info%2fann%3fuk%3dF5E20kt2HF&tr=http%3a%2f%2ftr3.torrent4me.com%2fann%3fuk%3dF5E20kt2HF&tr=http%3a%2f%2ftr3.tor4me.info%2fann%3fuk%3dF5E20kt2HF&tr=http%3a%2f%2fretracker.local%2fannounce&tr=wss%3a%2f%2fwstracker.online&tr=http%3a%2f%2fxbt.setitagila.ru%3a2710%2fannounce

[Цитировать]



Показать сообщения:    

Текущее время: 25-Фев 14:31

Часовой пояс: UTC + 6


Вы не можете начинать темы
Вы не можете отвечать на сообщения
Вы не можете редактировать свои сообщения
Вы не можете удалять свои сообщения
Вы не можете голосовать в опросах
Вы не можете прикреплять файлы к сообщениям
Вы не можете скачивать файлы

!ВНИМАНИЕ!
Сайт не предоставляет электронные версии произведений, а занимается лишь коллекционированием и каталогизацией ссылок, присылаемых и публикуемых на форуме нашими читателями. Если вы являетесь правообладателем какого-либо представленного материала и не желаете, чтобы ссылка на него находилась в нашем каталоге, свяжитесь с нами, и мы незамедлительно удалим ее. Файлы для обмена на трекере предоставлены пользователями сайта, и администрация не несет ответственности за их содержание. Просьба не заливать файлы, защищенные авторскими правами, а также файлы нелегального содержания!