***Уважаемые пользователи и гости !!! Сайт переехал на новый домен Torrents-club.info. Просьба изменить ваши закладки! ***
 
[ Сегодня идет свободное скачивание без начисления Download ]


Статистика раздачи
Нет
 
   
 
 
 
Миссия невыполнима: Племя изгоев / Mission: Impossible - Rogue Nation (2015) [4K, HEVC, HDR, Dolby Vision / Blu-Ray Remux] (2160p) Год выпуска: 2015
Страна: США
Жанр: боевик, триллер, приключения
Выпущено: США, Paramount Pictures, Skydance Productions, Bad Robot
Режиссер: Кристофер МакКуорри
Продолжительность: 02:11:25
Перевод: Дублированный
возраст 16+
В ролях:
Том Круз (Ethan Hunt), Ребекка Фергюсон (Ilsa Faust), Саймон Пегг (Benji Dunn), Джереми Реннер (William Brandt), Винг Реймз (Luther Stickell), Шон Харрис (Lane), Алек Болдуин (Alan Hunley), Саймон МакБерни (Atlee), Йенс Хультен (Janik Vinter), Том Холландер (Prime Minister), Чжан Цзинчу (Lauren), Матео Руфино (A400 Pilot)
Описание:
Когда ОМН распускают, и Итан Хант остается не у дел, его команда неожиданно сталкивается с разветвленной международной сетью высокопрофессиональных спецагентов - Синдикатом. Это «племя изгоев» одержимо идеей установления нового мирового порядка и планирует серию разрушительных терактов. Итан и компания объединяются с дискредитированным британским агентом Ильзой Фауст и приступают к своей самой невыполнимой миссии..
Миссия: невыполнима 5 — Русский трейлер (2015)
Качество: Blu-Ray Remux (2160p)
Видео: HEVC, 44300 Кбит/с, 3840x2160, 23.976 Кадр/c
Аудио: Русский (AC3, 6ch, 640 Кбит/с)

Релиз

Данный вид релизов (контейнер MP4) предназначен для встроенного в ТВ (соответственно, с поддержкой DV) плеер.
Т.Е. Можно использовать как USB flash/HDD, так и DLNA / Plex - подобные сервисы/программы. дополнительный-внешний плеер не обязателен.
Внимание!
На моделях LG 2016 возможны сюрпризы "через раз", 2017-2018 должно идти без сюрпризов )

MediaInfo:

Общее
Полное имя                               : Mission.Impossible.Rogue.Nation.2015.UHD.BDRemux.2160p.DV.IVA.RUS.ExKinoRay.mp4
Формат                                   : MPEG-4
Профиль формата                          : Base Media / Version 2
Идентификатор кодека                     : mp42 (mp42/iso6/isom/msdh/dby1)
Размер файла                             : 44,4 Гбайт
Продолжительность                        : 2 ч. 11 м.
Общий поток                              : 48,3 Мбит/сек
Дата кодирования                         : UTC 2019-01-08 02:36:09
Дата пометки                             : UTC 2019-01-08 02:36:09
Видео #1
Идентификатор                            : 1
Формат                                   : HEVC
Формат/Информация                        : High Efficiency Video Coding
Коммерческое название                    : HDR10
Профиль формата                          : Main 10@L5.1@High
Идентификатор кодека                     : hev1
Идентификатор кодека/Информация          : High Efficiency Video Coding
Продолжительность                        : 2 ч. 11 м.
Битрейт                                  : 42,8 Мбит/сек
Ширина                                   : 3840 пикселей
Высота                                   : 2160 пикселей
Соотношение сторон                       : 16:9
Режим частоты кадров                     : Постоянный
Частота кадров                           : 23,976 (24000/1001) кадра/сек
Цветовое пространство                    : YUV
Субдискретизация насыщенности            : 4:2:0 (Type 2)
Битовая глубина                          : 10 бит
Бит/(Пиксели*Кадры)                      : 0.215
Размер потока                            : 39,4 Гбайт (89%)
Default                                  : Нет
Дата кодирования                         : UTC 2019-01-08 02:36:09
Дата пометки                             : UTC 2019-01-08 02:36:09
Цветовой диапазон                        : Limited
Основные цвета                           : BT.2020
Характеристики трансфера                 : PQ
Коэффициенты матрицы                     : BT.2020 non-constant
MasteringDisplay_ColorPrimaries          : Display P3
MasteringDisplay_Luminance               : min: 0.0001 cd/m2, max: 1000 cd/m2
Codec configuration box                  : hvcC
Видео #2
Идентификатор                            : 2
Формат                                   : HEVC
Формат/Информация                        : High Efficiency Video Coding
Коммерческое название                    : HDR10
Профиль формата                          : Main 10@L5.1@High
Dolby Vision                             : 1.0, dvhe.07.06, EL+RPU
Идентификатор кодека                     : dvhe
Идентификатор кодека/Информация          : High Efficiency Video Coding with Dolby Vision
Продолжительность                        : 2 ч. 11 м.
Битрейт                                  : 4836 Кбит/сек
Ширина                                   : 1920 пикселей
Высота                                   : 1080 пикселей
Соотношение сторон                       : 16:9
Режим частоты кадров                     : Постоянный
Частота кадров                           : 23,976 (24000/1001) кадра/сек
Цветовое пространство                    : YUV
Субдискретизация насыщенности            : 4:2:0 (Type 2)
Битовая глубина                          : 10 бит
Бит/(Пиксели*Кадры)                      : 0.097
Размер потока                            : 4,44 Гбайт (10%)
Default                                  : Нет
Дата кодирования                         : UTC 2019-01-08 02:36:09
Дата пометки                             : UTC 2019-01-08 02:36:09
Цветовой диапазон                        : Limited
Основные цвета                           : BT.2020
Характеристики трансфера                 : PQ
Коэффициенты матрицы                     : BT.2020 non-constant
MasteringDisplay_ColorPrimaries          : Display P3
MasteringDisplay_Luminance               : min: 0.0001 cd/m2, max: 1000 cd/m2
Codec configuration box                  : hvcC+dvcC
Аудио
Идентификатор                            : 3
Формат                                   : AC-3
Формат/Информация                        : Audio Coding 3
Коммерческое название                    : Dolby Digital
Идентификатор кодека                     : ac-3
Продолжительность                        : 2 ч. 11 м.
Вид битрейта                             : Постоянный
Битрейт                                  : 640 Кбит/сек
Каналы                                   : 6 каналов
Channel layout                           : L R C LFE Ls Rs
Частота                                  : 48,0 КГц
Частота кадров                           : 31,250 кадров/сек (1536 SPF)
Битовая глубина                          : 16 бит
Метод сжатия                             : С потерями
Размер потока                            : 602 Мбайт (1%)
Язык                                     : Russian
ServiceKind/String                       : Complete Main
Default                                  : Нет
Дата кодирования                         : UTC 2019-01-08 02:36:09
Дата пометки                             : UTC 2019-01-08 02:36:09

Скриншоты

MAGNET

Открой меня

magnet:?xt=urn:btih:0E1670BBD715F46D4262B1C8A34BF3D71B77FE1D&dn=Mission.Impossible.Rogue.Nation.2015.UHD.BDRemux.2160p.DV.IVA.RUS.ExKinoRay.mp4&tr=http%3a%2f%2ftr3.tor4me.info%2fann%3fuk%3dF5E20kt2HF&tr=http%3a%2f%2ftr3.tor2me.info%2fann%3fuk%3dF5E20kt2HF&tr=http%3a%2f%2ftr3.torrent4me.com%2fann%3fuk%3dF5E20kt2HF&tr=http%3a%2f%2fretracker.local%2fannounce&tr=wss%3a%2f%2fwstracker.online&tr=http%3a%2f%2fxbt.setitagila.ru%3a2710%2fannounce

[Цитировать]



Показать сообщения:    

Текущее время: 23-Фев 10:09

Часовой пояс: UTC + 6


Вы не можете начинать темы
Вы не можете отвечать на сообщения
Вы не можете редактировать свои сообщения
Вы не можете удалять свои сообщения
Вы не можете голосовать в опросах
Вы не можете прикреплять файлы к сообщениям
Вы не можете скачивать файлы

!ВНИМАНИЕ!
Сайт не предоставляет электронные версии произведений, а занимается лишь коллекционированием и каталогизацией ссылок, присылаемых и публикуемых на форуме нашими читателями. Если вы являетесь правообладателем какого-либо представленного материала и не желаете, чтобы ссылка на него находилась в нашем каталоге, свяжитесь с нами, и мы незамедлительно удалим ее. Файлы для обмена на трекере предоставлены пользователями сайта, и администрация не несет ответственности за их содержание. Просьба не заливать файлы, защищенные авторскими правами, а также файлы нелегального содержания!